当前位置: 首页 >> 海外电影 >> 转折[中文字幕].La.svolta.2021.ITALIAN.720p.NF.WEBRip.DDP5.1.x264-ROGUE3 1.74GB >> 正文

转折[中文字幕].La.svolta.2021.ITALIAN.720p.NF.WEBRip.DDP5.1.x264-ROGUE3 1.74GB

2022年04月21日 12:10:10     电影发布:来源于网络     电影分类:海外电影     评论(0)    

转折[中文字幕].La.svolta.2021.ITALIAN.720p.NF.WEBRip.DDP5.1.x264 ROGUE3 1.74GB  海外电影  第1张

◎译 名 转折 / The Turning Point

◎片 名 La svolta

◎年 代 2021

◎产 地 意大利

◎语 言 意大利语

◎上映日期 2021-12-02(都灵电影节) / 2022-04-20(意大利)

◎IMDb链接 https://www.imdb.com/title/tt14140844/

◎豆瓣链接 https://movie.douban.com/subject/35688969/

◎片 长 95分钟

◎简 介

Scared of life and lacking the courage to be himself, Ludovico lives hidden away in his grandmother's old apartment. One night, the wickedness of the world goes to visit him in the form of Jack, a boy who is Ludovico's age but has the opposite character: hard, determined, perhaps criminal. The forced cohabitation of two human beings who couldn't seem more different from one ano...

  1. Video

  2. ID : 1

  3. Format : AVC

  4. Format/Info : Advanced Video Codec

  5. Format profile : [email protected]

  6. Format settings : CABAC / 3 Ref Frames

  7. Format settings, CABAC : Yes

  8. Format settings, Reference frames : 3 frames

  9. Codec ID : V_MPEG4/ISO/AVC

  10. Duration : 1 h 37 min

  11. Bit rate mode : Variable

  12. Bit rate : 1 279 kb/s

  13. Nominal bit rate : 1 400 kb/s

  14. Maximum bit rate : 2 100 kb/s

  15. Width : 1 280 pixels

  16. Height : 720 pixels

  17. Display aspect ratio : 16:9

  18. Frame rate mode : Constant

  19. Frame rate : 24.000 FPS

  20. Color space : YUV

  21. Chroma subsampling : 4:2:0

  22. Bit depth : 8 bits

  23. Scan type : Progressive

  24. Bits/(Pixel*Frame) : 0.058

  25. Stream size : 889 MiB (50%)

  26. Writing library : x264 core 148 r2727 7d026e8

  27. Encoding settings : cabac=1 / ref=3 / deblock=1:0:0 / analyse=0x1:0x111 / me=umh / subme=10 / psy=1 / psy_rd=1.00:0.00 / mixed_ref=1 / me_range=24 / chroma_me=1 / trellis=2 / 8x8dct=0 / cqm=0 / deadzone=21,11 / fast_pskip=1 / chroma_qp_offset=-2 / threads=8 / lookahead_threads=1 / sliced_threads=0 / nr=0 / decimate=1 / interlaced=0 / NTMzNTQ= / bluray_compat=0 / stitchable=1 / constrained_intra=0 / bframes=2 / b_pyramid=0 / b_adapt=2 / b_bias=0 / direct=3 / weightb=1 / open_gop=0 / weightp=2 / keyint=250 / keyint_min=24 / scenecut=0 / intra_refresh=0 / rc_lookahead=48 / rc=2pass / mbtree=1 / bitrate=1400 / ratetol=1.0 / qcomp=0.50 / qpmin=6 / qpmax=51 / qpstep=4 / cplxblur=20.0 / qblur=0.5 / vbv_maxrate=2100 / vbv_bufsize=2800 / nal_hrd=vbr / filler=0 / NTMzNTQ=LmsMAP37EqsCpk / ip_ratio=1.40 / aq=1:1.00

  28. Default : Yes

  29. Forced : No


  30. Audio #1

  31. ID : 2

  32. Format : E-AC-3

  33. Format/Info : Enhanced AC-3

  34. Commercial name : Dolby Digital Plus

  35. Codec ID : A_EAC3

  36. Duration : 1 h 37 min

  37. Bit rate mode : Constant

  38. Bit rate : 640 kb/s

  39. Channel(s) : 6 channels

  40. Channel layout : L R C LFE Ls Rs

  41. Sampling rate : 48.0 kHz

  42. Frame rate : 31.250 FPS (1536 SPF)

  43. Compression mode : Lossy

  44. Stream size : 445 MiB (25%)

  45. Language : Italian

  46. Service kind : Complete Main

  47. Default : Yes

  48. Forced : No


  49. Audio #2

  50. ID : 3

  51. Format : E-AC-3

  52. Format/Info : Enhanced AC-3

  53. Commercial name : Dolby Digital Plus

  54. Codec ID : A_EAC3

  55. Duration : 1 h 37 min

  56. Bit rate mode : Constant

  57. Bit rate : 640 kb/s

  58. Channel(s) : 6 channels

  59. Channel layout : L R C LFE Ls Rs

  60. Sampling rate : 48.0 kHz

  61. Frame rate : 31.250 FPS (1536 SPF)

  62. Compression mode : Lossy

  63. Stream size : 445 MiB (25%)

  64. Language : English

  65. Service kind : Complete Main

  66. Default : No

  67. Forced : No


  68. Text #1

  69. ID : 4

  70. Format : UTF-8

  71. Codec ID : S_TEXT/UTF8

  72. Codec ID/Info : UTF-8 Plain Text

  73. Duration : 33 min 28 s

  74. Bit rate : 3 b/s

  75. Count of elements : 29

  76. Stream size : 899 Bytes (0%)

  77. Title : Forced

  78. Language : Italian

  79. Default : Yes

  80. Forced : Yes


  81. Text #2

  82. ID : 5

  83. Format : UTF-8

  84. Codec ID : S_TEXT/UTF8

  85. Codec ID/Info : UTF-8 Plain Text

  86. Duration : 1 h 30 min

  87. Bit rate : 1 b/s

  88. Count of elements : 36

  89. Stream size : 1 008 Bytes (0%)

  90. Title : Forced

  91. Language : English

  92. Default : No

  93. Forced : No


  94. Text #3

  95. ID : 6

  96. Format : UTF-8

  97. Codec ID : S_TEXT/UTF8

  98. Codec ID/Info : UTF-8 Plain Text

  99. Duration : 1 h 35 min

  100. Bit rate : 68 b/s

  101. Count of elements : 1469

  102. Stream size : 48.0 KiB (0%)

  103. Title : SDH

  104. Language : Italian

  105. Default : No

  106. Forced : No


  107. Text #4

  108. ID : 7

  109. Format : UTF-8

  110. Codec ID : S_TEXT/UTF8

  111. Codec ID/Info : UTF-8 Plain Text

  112. Duration : 1 h 34 min

  113. Bit rate : 80 b/s

  114. Count of elements : 1256

  115. Stream size : 55.9 KiB (0%)

  116. Language : Arabic

  117. Default : No

  118. Forced : No


  119. Text #5

  120. ID : 8

  121. Format : UTF-8

  122. Codec ID : S_TEXT/UTF8

  123. Codec ID/Info : UTF-8 Plain Text

  124. Duration : 1 h 34 min

  125. Bit rate : 42 b/s

  126. Count of elements : 1265

  127. Stream size : 29.8 KiB (0%)

  128. Language : Czech

  129. Default : No

  130. Forced : No


  131. Text #6

  132. ID : 9

  133. Format : UTF-8

  134. Codec ID : S_TEXT/UTF8

  135. Codec ID/Info : UTF-8 Plain Text

  136. Duration : 1 h 34 min

  137. Bit rate : 46 b/s

  138. Count of elements : 1090

  139. Stream size : 32.3 KiB (0%)

  140. Language : Danish

  141. Default : No

  142. Forced : No


  143. Text #7

  144. ID : 10

  145. Format : UTF-8

  146. Codec ID : S_TEXT/UTF8

  147. Codec ID/Info : UTF-8 Plain Text

  148. Duration : 1 h 34 min

  149. Bit rate : 47 b/s

  150. Count of elements : 1191

  151. Stream size : 33.0 KiB (0%)

  152. Language : German

  153. Default : No

  154. Forced : No


  155. Text #8

  156. ID : 11

  157. Format : UTF-8

  158. Codec ID : S_TEXT/UTF8

  159. Codec ID/Info : UTF-8 Plain Text

  160. Duration : 1 h 34 min

  161. Bit rate : 76 b/s

  162. Count of elements : 1234

  163. Stream size : 53.1 KiB (0%)

  164. Language : Greek

  165. Default : No

  166. Forced : No


  167. Text #9

  168. ID : 12

  169. Format : UTF-8

  170. Codec ID : S_TEXT/UTF8

  171. Codec ID/Info : UTF-8 Plain Text

  172. Duration : 1 h 30 min

  173. Bit rate : 63 b/s

  174. Count of elements : 1195

  175. Stream size : 42.2 KiB (0%)

  176. Language : English

  177. Default : No

  178. Forced : No


  179. Text #10

  180. ID : 13

  181. Format : UTF-8

  182. Codec ID : S_TEXT/UTF8

  183. Codec ID/Info : UTF-8 Plain Text

  184. Duration : 1 h 34 min

  185. Bit rate : 46 b/s

  186. Count of elements : 1173

  187. Stream size : 32.6 KiB (0%)

  188. Language : English

  189. Default : No

  190. Forced : No


  191. Text #11

  192. ID : 14

  193. Format : UTF-8

  194. Codec ID : S_TEXT/UTF8

  195. Codec ID/Info : UTF-8 Plain Text

  196. Duration : 1 h 31 min

  197. Bit rate : 73 b/s

  198. Count of elements : 1418

  199. Stream size : 49.6 KiB (0%)

  200. Title : SDH

  201. Language : English

  202. Default : No

  203. Forced : No


  204. Text #12

  205. ID : 15

  206. Format : UTF-8

  207. Codec ID : S_TEXT/UTF8

  208. Codec ID/Info : UTF-8 Plain Text

  209. Duration : 1 h 34 min

  210. Bit rate : 46 b/s

  211. Count of elements : 1223

  212. Stream size : 32.1 KiB (0%)

  213. Title : Latin American

  214. Language : Spanish

  215. Default : No

  216. Forced : No


  217. Text #13

  218. ID : 16

  219. Format : UTF-8

  220. Codec ID : S_TEXT/UTF8

  221. Codec ID/Info : UTF-8 Plain Text

  222. Duration : 1 h 34 min

  223. Bit rate : 43 b/s

  224. Count of elements : 1180

  225. Stream size : 30.4 KiB (0%)

  226. Language : Spanish

  227. Default : No

  228. Forced : No


  229. Text #14

  230. ID : 17

  231. Format : UTF-8

  232. Codec ID : S_TEXT/UTF8

  233. Codec ID/Info : UTF-8 Plain Text

  234. Duration : 1 h 34 min

  235. Bit rate : 41 b/s

  236. Count of elements : 1260

  237. Stream size : 28.6 KiB (0%)

  238. Language : Finnish

  239. Default : No

  240. Forced : No


  241. Text #15

  242. ID : 18

  243. Format : UTF-8

  244. Codec ID : S_TEXT/UTF8

  245. Codec ID/Info : UTF-8 Plain Text

  246. Duration : 1 h 34 min

  247. Bit rate : 46 b/s

  248. Count of elements : 1208

  249. Stream size : 32.2 KiB (0%)

  250. Language : French

  251. Default : No

  252. Forced : No


  253. Text #16

  254. ID : 19

  255. Format : UTF-8

  256. Codec ID : S_TEXT/UTF8

  257. Codec ID/Info : UTF-8 Plain Text

  258. Duration : 1 h 34 min

  259. Bit rate : 78 b/s

  260. Count of elements : 1268

  261. Stream size : 54.3 KiB (0%)

  262. Language : Hebrew

  263. Default : No

  264. Forced : No


  265. Text #17

  266. ID : 20

  267. Format : UTF-8

  268. Codec ID : S_TEXT/UTF8

  269. Codec ID/Info : UTF-8 Plain Text

  270. Duration : 1 h 34 min

  271. Bit rate : 42 b/s

  272. Count of elements : 1124

  273. Stream size : 29.3 KiB (0%)

  274. Language : Croatian

  275. Default : No

  276. Forced : No


  277. Text #18

  278. ID : 21

  279. Format : UTF-8

  280. Codec ID : S_TEXT/UTF8

  281. Codec ID/Info : UTF-8 Plain Text

  282. Duration : 1 h 34 min

  283. Bit rate : 47 b/s

  284. Count of elements : 1232

  285. Stream size : 33.0 KiB (0%)

  286. Language : Hungarian

  287. Default : No

  288. Forced : No


  289. Text #19

  290. ID : 22

  291. Format : UTF-8

  292. Codec ID : S_TEXT/UTF8

  293. Codec ID/Info : UTF-8 Plain Text

  294. Duration : 1 h 34 min

  295. Bit rate : 50 b/s

  296. Count of elements : 1270

  297. Stream size : 34.9 KiB (0%)

  298. Language : Indonesian

  299. Default : No

  300. Forced : No


  301. Text #20

  302. ID : 23

  303. Format : UTF-8

  304. Codec ID : S_TEXT/UTF8

  305. Codec ID/Info : UTF-8 Plain Text

  306. Duration : 1 h 34 min

  307. Bit rate : 45 b/s

  308. Count of elements : 1262

  309. Stream size : 31.3 KiB (0%)

  310. Language : Japanese

  311. Default : No

  312. Forced : No


  313. Text #21

  314. ID : 24

  315. Format : UTF-8

  316. Codec ID : S_TEXT/UTF8

  317. Codec ID/Info : UTF-8 Plain Text

  318. Duration : 1 h 34 min

  319. Bit rate : 56 b/s

  320. Count of elements : 1268

  321. Stream size : 39.2 KiB (0%)

  322. Language : Korean

  323. Default : No

  324. Forced : No


  325. Text #22

  326. ID : 25

  327. Format : UTF-8

  328. Codec ID : S_TEXT/UTF8

  329. Codec ID/Info : UTF-8 Plain Text

  330. Duration : 1 h 34 min

  331. Bit rate : 44 b/s

  332. Count of elements : 1238

  333. Stream size : 30.9 KiB (0%)

  334. Language : Malay

  335. Default : No

  336. Forced : No


  337. Text #23

  338. ID : 26

  339. Format : UTF-8

  340. Codec ID : S_TEXT/UTF8

  341. Codec ID/Info : UTF-8 Plain Text

  342. Duration : 1 h 34 min

  343. Bit rate : 45 b/s

  344. Count of elements : 976

  345. Stream size : 31.4 KiB (0%)

  346. Language : Norwegian Bokmal

  347. Default : No

  348. Forced : No


  349. Text #24

  350. ID : 27

  351. Format : UTF-8

  352. Codec ID : S_TEXT/UTF8

  353. Codec ID/Info : UTF-8 Plain Text

  354. Duration : 1 h 34 min

  355. Bit rate : 46 b/s

  356. Count of elements : 1227

  357. Stream size : 32.4 KiB (0%)

  358. Language : Dutch

  359. Default : No

  360. Forced : No


  361. Text #25

  362. ID : 28

  363. Format : UTF-8

  364. Codec ID : S_TEXT/UTF8

  365. Codec ID/Info : UTF-8 Plain Text

  366. Duration : 1 h 31 min

  367. Bit rate : 45 b/s

  368. Count of elements : 1237

  369. Stream size : 30.1 KiB (0%)

  370. Language : Polish

  371. Default : No

  372. Forced : No


  373. Text #26

  374. ID : 29

  375. Format : UTF-8

  376. Codec ID : S_TEXT/UTF8

  377. Codec ID/Info : UTF-8 Plain Text

  378. Duration : 1 h 34 min

  379. Bit rate : 45 b/s

  380. Count of elements : 1270

  381. Stream size : 31.9 KiB (0%)

  382. Title : Brazilian

  383. Language : Portuguese

  384. Default : No

  385. Forced : No


  386. Text #27

  387. ID : 30

  388. Format : UTF-8

  389. Codec ID : S_TEXT/UTF8

  390. Codec ID/Info : UTF-8 Plain Text

  391. Duration : 1 h 34 min

  392. Bit rate : 48 b/s

  393. Count of elements : 1253

  394. Stream size : 33.7 KiB (0%)

  395. Language : Portuguese

  396. Default : No

  397. Forced : No


  398. Text #28

  399. ID : 31

  400. Format : UTF-8

  401. Codec ID : S_TEXT/UTF8

  402. Codec ID/Info : UTF-8 Plain Text

  403. Duration : 1 h 30 min

  404. Bit rate : 52 b/s

  405. Count of elements : 1147

  406. Stream size : 34.5 KiB (0%)

  407. Language : Romanian

  408. Default : No

  409. Forced : No


  410. Text #29

  411. ID : 32

  412. Format : UTF-8

  413. Codec ID : S_TEXT/UTF8

  414. Codec ID/Info : UTF-8 Plain Text

  415. Duration : 1 h 34 min

  416. Bit rate : 77 b/s

  417. Count of elements : 1224

  418. Stream size : 54.0 KiB (0%)

  419. Language : Russian

  420. Default : No

  421. Forced : No


  422. Text #30

  423. ID : 33

  424. Format : UTF-8

  425. Codec ID : S_TEXT/UTF8

  426. Codec ID/Info : UTF-8 Plain Text

  427. Duration : 1 h 34 min

  428. Bit rate : 50 b/s

  429. Count of elements : 887

  430. Stream size : 34.8 KiB (0%)

  431. Language : Swedish

  432. Default : No

  433. Forced : No


  434. Text #31

  435. ID : 34

  436. Format : UTF-8

  437. Codec ID : S_TEXT/UTF8

  438. Codec ID/Info : UTF-8 Plain Text

  439. Duration : 1 h 34 min

  440. Bit rate : 119 b/s

  441. Count of elements : 1267

  442. Stream size : 83.1 KiB (0%)

  443. Language : Thai

  444. Default : No

  445. Forced : No


  446. Text #32

  447. ID : 35

  448. Format : UTF-8

  449. Codec ID : S_TEXT/UTF8

  450. Codec ID/Info : UTF-8 Plain Text

  451. Duration : 1 h 34 min

  452. Bit rate : 45 b/s

  453. Count of elements : 1257

  454. Stream size : 31.9 KiB (0%)

  455. Language : Turkish

  456. Default : No

  457. Forced : No


  458. Text #33

  459. ID : 36

  460. Format : UTF-8

  461. Codec ID : S_TEXT/UTF8

  462. Codec ID/Info : UTF-8 Plain Text

  463. Duration : 1 h 34 min

  464. Bit rate : 74 b/s

  465. Count of elements : 1253

  466. Stream size : 51.5 KiB (0%)

  467. Language : Ukrainian

  468. Default : No

  469. Forced : No


  470. Text #34

  471. ID : 37

  472. Format : UTF-8

  473. Codec ID : S_TEXT/UTF8

  474. Codec ID/Info : UTF-8 Plain Text

  475. Duration : 1 h 34 min

  476. Bit rate : 68 b/s

  477. Count of elements : 1120

  478. Stream size : 47.3 KiB (0%)

  479. Language : Vietnamese

  480. Default : No

  481. Forced : No


  482. Text #35

  483. ID : 38

  484. Format : UTF-8

  485. Codec ID : S_TEXT/UTF8

  486. Codec ID/Info : UTF-8 Plain Text

  487. Duration : 1 h 34 min

  488. Bit rate : 51 b/s

  489. Count of elements : 1268

  490. Stream size : 35.9 KiB (0%)

  491. Title : Simplified

  492. Language : Chinese

  493. Default : No

  494. Forced : No


  495. Text #36

  496. ID : 39

  497. Format : UTF-8

  498. Codec ID : S_TEXT/UTF8

  499. Codec ID/Info : UTF-8 Plain Text

  500. Duration : 1 h 34 min

  501. Bit rate : 52 b/s

  502. Count of elements : 1264

  503. Stream size : 36.1 KiB (0%)

  504. Title : Traditional

  505. Language : Chinese

  506. Default : No

  507. Forced : No


  508. Menu

  509. 01:32:42.000 : en:Credits

复制代码

转折[中文字幕].La.svolta.2021.ITALIAN.720p.NF.WEBRip.DDP5.1.x264 ROGUE3 1.74GB  海外电影  第2张 转折[中文字幕].La.svolta.2021.ITALIAN.720p.NF.WEBRip.DDP5.1.x264 ROGUE3 1.74GB  海外电影  第3张 转折[中文字幕].La.svolta.2021.ITALIAN.720p.NF.WEBRip.DDP5.1.x264 ROGUE3 1.74GB  海外电影  第4张



文件下载


除非特别注明,本文『转折[中文字幕].La.svolta.2021.ITALIAN.720p.NF.WEBRip.DDP5.1.x264-ROGUE3 1.74GB』来源于互联网机器人自动抓取,非本站原创。 浮游电影网不对本文拥有版权,如有侵犯,请联系邮箱:fuyouu#yandex.com[#换成@]投诉。我们会在15个工作日内删除。 但烦请转载时请标明出处:“本文转载于『浮游电影网』,原文地址:https://www.fuyouu.com/21535.html

评论吧骚年!

发表你的见解   

昵称*

E-mail*(建议输入,以便收到博主回复的提示邮件)

验证码*

您可以使用eMule或eMule Mod(Windows)、aMule(Win、Linux、Mac)等软件下载eD2k链接。。
eMule收藏集(.emulecollection)文件是您选中的所有链接的列表文件。eMule可以直接下载它们。
按住SHIFT键选择可以选中多个选择框。
可用文件名和大小选择器来选择文件。
文件名选择器帮您根据文件名称或后缀来选择文件。不分大小写。
符号使用:
和:空格( )、+
不包含:-
或:|
转义:一对英文引号("");
匹配开头:^
匹配结尾:$
例如:
选中所有名称中包含有“eMule”或“0.49c”字眼,但不包含有“exe”字眼的:emule|0.49c -exe
选中所有名称的开头是“eMule”,结尾是“0.49c”的:^emule 0.49c$
选中所有名称中带有“eMule 0.49c”的(必须是“eMule 0.49c”,中间没有别的字符,不能是“eMule fake 0.49c”),需要转义:"emule 0.49c"
大小选择器帮您根据文件大小选择文件。