当前位置: 首页 >> 欧美电影 >> 被解救的姜戈[中文字幕].Django.Unchained.2012.1080p.BluRay.REMUX.AVC.DTS-HD.MA.5.1-FGT 33.86GB >> 正文

被解救的姜戈[中文字幕].Django.Unchained.2012.1080p.BluRay.REMUX.AVC.DTS-HD.MA.5.1-FGT 33.86GB

2022年04月21日 12:08:59     电影发布:来源于网络     电影分类:欧美电影     评论(0)    

被解救的姜戈[中文字幕].Django.Unchained.2012.1080p.BluRay.REMUX.AVC.DTS HD.MA.5.1 FGT 33.86GB  欧美电影  第1张

◎译 名 被解救的姜戈 / 被解放的姜戈 / 决杀令(台) / 黑杀令(港) / 被解放的迪亚戈 / 铁血枷锁 / 解放的詹哥 / 奔放的强哥 / 强哥好强

◎片 名 Django Unchained

◎年 代 2012

◎产 地 美国

◎类 别 剧情 / 动作 / 西部 / 冒险

◎语 言 英语 / 法语 / 德语

◎上映日期 2013-05-12(中国大陆) / 2012-12-25(美国)

◎IMDb链接 https://www.imdb.com/title/tt1853728/

◎豆瓣评分 8.8/10 (547592人评价)

◎豆瓣链接 https://movie.douban.com/subject/6307447/

◎片 长 163分钟(中国大陆)

◎导 演 昆汀·塔伦蒂诺 Quentin Tarantino (id:1054444)

◎编 剧 昆汀·塔伦蒂诺 Quentin Tarantino (id:1054444)

◎演 员 杰米·福克斯 Jamie Foxx (id:1036329)

莱昂纳多·迪卡普里奥 Leonardo DiCaprio (id:1041029)

克里斯托弗·瓦尔兹 Christoph Waltz (id:1054405)

塞缪尔·杰克逊 Samuel L. Jackson (id:1054408)

凯丽·华盛顿 Kerry Washington (id:1004616)

沃尔顿·戈金斯 Walton Goggins (id:1098551)

丹尼斯·克里斯托弗 Dennis Christopher (id:1074908)

乔纳·希尔 Jonah Hill (id:1036302)

詹姆斯·瑞马尔 James Remar (id:1013812)

爱波·塔布琳 Amber Tamblyn (id:1044877)

弗兰科·内罗 Franco Nero (id:1036400)

罗伯特·卡拉丁 Robert Carradine (id:1002739)

佐伊·贝尔 Zoe Bell (id:1040579)

昆汀·塔伦蒂诺 Quentin Tarantino (id:1054444)

布鲁斯·邓恩 Bruce Dern (id:1019069)

基思·卡拉丹 Keith Carradine (id:1025211)

唐·约翰逊 Don Johnson (id:1054900)

J·D·埃弗摩尔 J.D. Evermore (id:1086542)

拉斯·坦布林 Russ Tamblyn (id:1014005)

劳拉·凯洛蒂 Laura Cayouette (id:1009471)

詹姆斯·拉索 James Russo (id:1048175)

奥托·艾森度 Ato Essandoh (id:1187561)

瑞克斯·林恩 Rex Linn (id:1123610)

迈克·康纳·盖尼 M.C. Gainey (id:1100584)

耐德·巴拉米 Ned Bellamy (id:1048233)

克里斯托弗·贝瑞 Christopher Berry (id:1341025)

唐·司徒奥德 Don Stroud (id:1050002)

汤姆·沃帕特 Tom Wopat (id:1049718)

妮可·加利西亚 Nichole Galicia (id:1350626)

丹妮尔·沃茨 Danièle Watts (id:1333185)

库珀·哈克卡比 Cooper Huckabee (id:1095494)

凯瑞·西蒙斯 Kerry Sims (id:1341032)

乔恩·阿兹 Jon Eyez (id:1341379)

蒂莫西·皮克勒斯 Timothy Pickles (id:1341029)

爱德华·J·克莱尔 Edward J. Clare (id:1341030)

莫尼卡·雷内·安德森 Monica Rene'e Anderson (id:1341031)

里奇·J·拉德纳 Richie J. Ladner (id:1341035)

克雷格·斯塔克 Craig Stark (id:1353691)

皮拉尔·萨富隆 Pilar Savone (id:1326153)

恩尼奥·莫里康内 Ennio Morricone (id:1044688)

阿里杰铎·鄂洛多纳尼 Riz Ortolani (id:1054374)

罗伯特·理查森 Robert Richardson (id:1050019)

布里安娜·温 Breanna Wing (id:1412714)

雪伦·戴维斯 Sharen Davis (id:1033006)

艾伦 A. 安彭 Allan A. Apone (id:1277325)

格雷格·斯蒂尔 Greg Steele (id:1382941)

◎简 介

1858年,美国南北战争前两年。德国赏金猎人金·舒尔茨(克里斯托弗·瓦尔兹 Christoph Waltz饰)从贩奴商人手中买下黑奴姜戈(杰米·福克斯 Jamie Foxx饰),让其重获自由。舒尔茨实则是要把姜戈培养成无法无天的赏金猎人,为其缉拿各种通缉犯以换取报酬。姜 戈的唯一条件是:从暴虐的糖果庄园主卡尔文·坎迪(莱昂纳多·迪卡普里奥 Leonardo DiCaprio饰)手中解救出自己的妻子布鲁姆希尔达(凯丽·华盛顿 Kerry Washington饰)。本片是昆汀向1966年由塞吉奥·考布西执导的经典意大利西部片《迪亚戈》的致敬之作。

鬼才导演痞子昆丁三年磨一剑,继《无耻混蛋》后又一巨制力作。本片延续昆汀一贯低调奢华的风格,处处可见奇思妙想的幽默元素和血腥野性的动作场面,更有强档群戏,豪华卡司,可谓看点十足。

《被解放的姜戈》荣获第85届奥斯...

◎获奖情况 (共42项)

第85届奥斯卡金像奖 (2013)

最佳影片(提名)

最佳男配角

└──克里斯托弗·瓦尔兹 (id:1054405)

最佳原创剧本

└──昆汀·塔伦蒂诺 (id:1054444)

最佳摄影(提名)

└──罗伯特·理查森 (id:1050019)

最佳音效剪辑(提名)

第70届金球奖 (2013)

电影类 最佳剧情片(提名)

电影类 最佳导演(提名)

└──昆汀·塔伦蒂诺 (id:1054444)

电影类 最佳男配角

└──克里斯托弗·瓦尔兹 (id:1054405)

电影类 最佳男配角(提名)

└──莱昂纳多·迪卡普里奥 (id:1041029)

电影类 最佳编剧

└──昆汀·塔伦蒂诺 (id:1054444)

第37届日本电影学院奖 (2014)

最佳外语片(提名)

第39届法国凯撒电影奖 (2014)

最佳外语片(提名)

└──昆汀·塔伦蒂诺 (id:1054444)

第57届意大利大卫奖 (2013)

最佳外语片

└──昆汀·塔伦蒂诺 (id:1054444)

第22届MTV电影奖 (2013)

MTV电影奖 年度电影(提名)

MTV电影奖 最佳男演员(提名)

└──杰米·福克斯 (id:1036329)

MTV电影奖 最佳吻戏(提名)

MTV电影奖 最佳打斗(提名)

└──杰米·福克斯 (id:1036329)

MTV电影奖 最佳银幕搭档(提名)

MTV电影奖 最目瞪口呆场面

MTV电影奖 最佳反派(提名)

└──莱昂纳多·迪卡普里奥 (id:1041029)

第78届纽约影评人协会奖 (2012)

最佳男配角(提名)

└──克里斯托弗·瓦尔兹 (id:1054405)

第84届美国国家评论协会奖 (2013)

最佳男配角

└──莱昂纳多·迪卡普里奥 (id:1041029)

年度佳片

第18届美国评论家选择电影奖 (2013)

最佳影片(提名)

最佳原创剧本

└──昆汀·塔伦蒂诺 (id:1054444)

第13届美国电影学会奖 (2012)

年度佳片

第11届华盛顿影评人协会奖 (2012)

最佳男配角(提名)

└──莱昂纳多·迪卡普里奥 (id:1041029)

最佳原创剧本(提名)

└──昆汀·塔伦蒂诺 (id:1054444)

第33届波士顿影评人协会奖 (2012)

最佳男配角(提名)

└──克里斯托弗·瓦尔兹 (id:1054405)

最佳音乐(提名)

第38届洛杉矶影评人协会奖 (2012)

最佳男配角(提名)

└──克里斯托弗·瓦尔兹 (id:1054405)

第17届圣地亚哥影评人协会奖 (2012)

最佳影片(提名)

最佳男配角

└──克里斯托弗·瓦尔兹 (id:1054405)

最佳原创剧本(提名)

└──昆汀·塔伦蒂诺 (id:1054444)

最佳摄影(提名)

└──罗伯特·理查森 (id:1050019)

最佳群像表演(提名)

第25届芝加哥影评人协会奖 (2012)

最佳男配角(提名)

└──莱昂纳多·迪卡普里奥 (id:1041029)

最佳原创剧本(提名)

└──昆汀·塔伦蒂诺 (id:1054444)

第3届豆瓣电影鑫像奖 (2013)

鑫豆单元 最佳影片(外语)(提名)

鑫豆单元 最佳导演(外语)(提名)

└──昆汀·塔伦蒂诺 (id:1054444)

鑫豆单元 最佳男演员(外语)(提名)

└──莱昂纳多·迪卡普里奥 (id:1041029)

鑫豆单元 最佳配乐(提名)

  1. Video

  2. ID : 1

  3. ID in the original source medium : 4113 (0x1011)

  4. Format : AVC

  5. Format/Info : Advanced Video Codec

  6. Format profile : [email protected]

  7. Format settings : CABAC / 2 Ref Frames

  8. Format settings, CABAC : Yes

  9. Format settings, Reference frames : 2 frames

  10. Format settings, GOP : M=1, N=10

  11. Codec ID : V_MPEG4/ISO/AVC

  12. Duration : 2 h 45 min

  13. Bit rate mode : Variable

  14. Bit rate : 22.9 Mb/s

  15. Width : 1 920 pixels

  16. Height : 1 080 pixels

  17. Display aspect ratio : 16:9

  18. Frame rate mode : Constant

  19. Frame rate : 23.976 (24000/1001/53354) FPS

  20. Color space : YUV

  21. Chroma subsampling : 4:2:0

  22. Bit depth : 8 bits

  23. Scan type : Progressive

  24. Bits/(Pixel*Frame) : 0.461

  25. Stream size : 26.5 GiB (78%)

  26. Language : English

  27. Default : No

  28. Forced : No

  29. Original source medium : Blu-ray


  30. Audio #1

  31. ID : 2

  32. ID in the original source medium : 4352 (0x1100)

  33. Format : DTS XLL

  34. Format/Info : Digital Theater Systems

  35. Commercial name : DTS-HD Master Audio

  36. Codec ID : A_DTS

  37. Duration : 2 h 45 min

  38. Bit rate mode : Variable

  39. Bit rate : 2 204 kb/s

  40. Channel(s) : 6 channels

  41. Channel layout : C L R Ls Rs LFE

  42. Sampling rate : 48.0 kHz

  43. Frame rate : 93.750 FPS (512 SPF)

  44. Bit depth : 16 bits

  45. Compression mode : Lossless

  46. Stream size : 2.55 GiB (8%)

  47. Title : DTS-HD MA 5.1

  48. Language : English

  49. Default : Yes

  50. Forced : No

  51. Original source medium : Blu-ray


  52. Audio #2

  53. ID : 3

  54. ID in the original source medium : 4353 (0x1101)

  55. Format : AC-3

  56. Format/Info : Audio Coding 3

  57. Commercial name : Dolby Digital

  58. Codec ID : A_AC3

  59. Duration : 2 h 45 min

  60. Bit rate mode : Constant

  61. Bit rate : 640 kb/s

  62. Channel(s) : 6 channels

  63. Channel layout : L R C LFE Ls Rs

  64. Sampling rate : 48.0 kHz

  65. Frame rate : 31.250 FPS (1536 SPF)

  66. Compression mode : Lossy

  67. Stream size : 757 MiB (2%)

  68. Title : DD 5.1

  69. Language : Czech

  70. Service kind : Complete Main

  71. Default : No

  72. Forced : No

  73. Original source medium : Blu-ray


  74. Audio #3

  75. ID : 4

  76. ID in the original source medium : 4354 (0x1102)

  77. Format : AC-3

  78. Format/Info : Audio Coding 3

  79. Commercial name : Dolby Digital

  80. Codec ID : A_AC3

  81. Duration : 2 h 45 min

  82. Bit rate mode : Constant

  83. Bit rate : 640 kb/s

  84. Channel(s) : 6 channels

  85. Channel layout : L R C LFE Ls Rs

  86. Sampling rate : 48.0 kHz

  87. Frame rate : 31.250 FPS (1536 SPF)

  88. Compression mode : Lossy

  89. Stream size : 757 MiB (2%)

  90. Title : DD 5.1

  91. Language : Hungarian

  92. Service kind : Complete Main

  93. Default : No

  94. Forced : No

  95. Original source medium : Blu-ray


  96. Audio #4

  97. ID : 5

  98. ID in the original source medium : 4355 (0x1103)

  99. Format : AC-3

  100. Format/Info : Audio Coding 3

  101. Commercial name : Dolby Digital

  102. Codec ID : A_AC3

  103. Duration : 2 h 45 min

  104. Bit rate mode : Constant

  105. Bit rate : 640 kb/s

  106. Channel(s) : 6 channels

  107. Channel layout : L R C LFE Ls Rs

  108. Sampling rate : 48.0 kHz

  109. Frame rate : 31.250 FPS (1536 SPF)

  110. Compression mode : Lossy

  111. Stream size : 757 MiB (2%)

  112. Title : DD 5.1

  113. Language : Polish

  114. Service kind : Complete Main

  115. Default : No

  116. Forced : No

  117. Original source medium : Blu-ray


  118. Audio #5

  119. ID : 6

  120. ID in the original source medium : 4356 (0x1104)

  121. Format : AC-3

  122. Format/Info : Audio Coding 3

  123. Commercial name : Dolby Digital

  124. Codec ID : A_AC3

  125. Duration : 2 h 45 min

  126. Bit rate mode : Constant

  127. Bit rate : 640 kb/s

  128. Channel(s) : 6 channels

  129. Channel layout : L R C LFE Ls Rs

  130. Sampling rate : 48.0 kHz

  131. Frame rate : 31.250 FPS (1536 SPF)

  132. Compression mode : Lossy

  133. Stream size : 757 MiB (2%)

  134. Title : DD 5.1

  135. Language : Russian

  136. Service kind : Complete Main

  137. Default : No

  138. Forced : No

  139. Original source medium : Blu-ray


  140. Audio #6

  141. ID : 7

  142. ID in the original source medium : 4357 (0x1105)

  143. Format : AC-3

  144. Format/Info : Audio Coding 3

  145. Commercial name : Dolby Digital

  146. Codec ID : A_AC3

  147. Duration : 2 h 45 min

  148. Bit rate mode : Constant

  149. Bit rate : 640 kb/s

  150. Channel(s) : 6 channels

  151. Channel layout : L R C LFE Ls Rs

  152. Sampling rate : 48.0 kHz

  153. Frame rate : 31.250 FPS (1536 SPF)

  154. Compression mode : Lossy

  155. Stream size : 757 MiB (2%)

  156. Title : DD 5.1

  157. Language : Turkish

  158. Service kind : Complete Main

  159. Default : No

  160. Forced : No

  161. Original source medium : Blu-ray


  162. Audio #7

  163. ID : 8

  164. ID in the original source medium : 4358 (0x1106)

  165. Format : AC-3

  166. Format/Info : Audio Coding 3

  167. Commercial name : Dolby Digital

  168. Codec ID : A_AC3

  169. Duration : 2 h 45 min

  170. Bit rate mode : Constant

  171. Bit rate : 640 kb/s

  172. Channel(s) : 6 channels

  173. Channel layout : L R C LFE Ls Rs

  174. Sampling rate : 48.0 kHz

  175. Frame rate : 31.250 FPS (1536 SPF)

  176. Compression mode : Lossy

  177. Stream size : 757 MiB (2%)

  178. Title : DD 5.1

  179. Language : Ukrainian

  180. Service kind : Complete Main

  181. Default : No

  182. Forced : No

  183. Original source medium : Blu-ray


  184. Text #1

  185. ID : 9

  186. Format : UTF-8

  187. Codec ID : S_TEXT/UTF8

  188. Codec ID/Info : UTF-8 Plain Text

  189. Duration : 2 h 40 min

  190. Bit rate : 56 b/s

  191. Count of elements : 1819

  192. Stream size : 66.1 KiB (0%)

  193. Language : English

  194. Default : Yes

  195. Forced : No


  196. Text #2

  197. ID : 10

  198. ID in the original source medium : 4608 (0x1200)

  199. Format : PGS

  200. Muxing mode : zlib

  201. Codec ID : S_HDMV/PGS

  202. Codec ID/Info : Picture based subtitle format used on BDs/HD-DVDs

  203. Duration : 2 h 40 min

  204. Bit rate : 33.3 kb/s

  205. Count of elements : 3750

  206. Stream size : 38.3 MiB (0%)

  207. Language : English

  208. Default : No

  209. Forced : No

  210. Original source medium : Blu-ray


  211. Text #3

  212. ID : 11

  213. ID in the original source medium : 4609 (0x1201)

  214. Format : PGS

  215. Muxing mode : zlib

  216. Codec ID : S_HDMV/PGS

  217. Codec ID/Info : Picture based subtitle format used on BDs/HD-DVDs

  218. Duration : 2 h 41 min

  219. Bit rate : 16.4 kb/s

  220. Count of elements : 3832

  221. Stream size : 19.0 MiB (0%)

  222. Language : Arabic

  223. Default : No

  224. Forced : No

  225. Original source medium : Blu-ray


  226. Text #4

  227. ID : 12

  228. ID in the original source medium : 4610 (0x1202)

  229. Format : PGS

  230. Muxing mode : zlib

  231. Codec ID : S_HDMV/PGS

  232. Codec ID/Info : Picture based subtitle format used on BDs/HD-DVDs

  233. Duration : 2 h 44 min

  234. Bit rate : 29.0 kb/s

  235. Count of elements : 3836

  236. Stream size : 34.1 MiB (0%)

  237. Language : Bulgarian

  238. Default : No

  239. Forced : No

  240. Original source medium : Blu-ray


  241. Text #5

  242. ID : 13

  243. ID in the original source medium : 4611 (0x1203)

  244. Format : PGS

  245. Muxing mode : zlib

  246. Codec ID : S_HDMV/PGS

  247. Codec ID/Info : Picture based subtitle format used on BDs/HD-DVDs

  248. Duration : 2 h 41 min

  249. Bit rate : 27.0 kb/s

  250. Count of elements : 3813

  251. Stream size : 31.2 MiB (0%)

  252. Language : Croatian

  253. Default : No

  254. Forced : No

  255. Original source medium : Blu-ray


  256. Text #6

  257. ID : 14

  258. ID in the original source medium : 4612 (0x1204)

  259. Format : PGS

  260. Muxing mode : zlib

  261. Codec ID : S_HDMV/PGS

  262. Codec ID/Info : Picture based subtitle format used on BDs/HD-DVDs

  263. Duration : 2 h 41 min

  264. Bit rate : 30.3 kb/s

  265. Count of elements : 3815

  266. Stream size : 35.0 MiB (0%)

  267. Language : Czech

  268. Default : No

  269. Forced : No

  270. Original source medium : Blu-ray


  271. Text #7

  272. ID : 15

  273. ID in the original source medium : 4612 (0x1204)

  274. Format : PGS

  275. Muxing mode : zlib

  276. Codec ID : S_HDMV/PGS

  277. Codec ID/Info : Picture based subtitle format used on BDs/HD-DVDs

  278. Duration : 2 h 18 min

  279. Bit rate : 560 b/s

  280. Count of elements : 67

  281. Stream size : 571 KiB (0%)

  282. Language : Czech

  283. Default : No

  284. Forced : No

  285. Original source medium : Blu-ray


  286. Text #8

  287. ID : 16

  288. ID in the original source medium : 4613 (0x1205)

  289. Format : PGS

  290. Muxing mode : zlib

  291. Codec ID : S_HDMV/PGS

  292. Codec ID/Info : Picture based subtitle format used on BDs/HD-DVDs

  293. Duration : 2 h 41 min

  294. Bit rate : 28.6 kb/s

  295. Count of elements : 3030

  296. Stream size : 33.1 MiB (0%)

  297. Language : Estonian

  298. Default : No

  299. Forced : No

  300. Original source medium : Blu-ray


  301. Text #9

  302. ID : 17

  303. ID in the original source medium : 4614 (0x1206)

  304. Format : PGS

  305. Muxing mode : zlib

  306. Codec ID : S_HDMV/PGS

  307. Codec ID/Info : Picture based subtitle format used on BDs/HD-DVDs

  308. Duration : 2 h 41 min

  309. Bit rate : 33.5 kb/s

  310. Count of elements : 3818

  311. Stream size : 38.7 MiB (0%)

  312. Language : Greek

  313. Default : No

  314. Forced : No

  315. Original source medium : Blu-ray


  316. Text #10

  317. ID : 18

  318. ID in the original source medium : 4615 (0x1207)

  319. Format : PGS

  320. Muxing mode : zlib

  321. Codec ID : S_HDMV/PGS

  322. Codec ID/Info : Picture based subtitle format used on BDs/HD-DVDs

  323. Duration : 2 h 41 min

  324. Bit rate : 24.0 kb/s

  325. Count of elements : 3902

  326. Stream size : 27.8 MiB (0%)

  327. Language : Hebrew

  328. Default : No

  329. Forced : No

  330. Original source medium : Blu-ray


  331. Text #11

  332. ID : 19

  333. ID in the original source medium : 4616 (0x1208)

  334. Format : PGS

  335. Muxing mode : zlib

  336. Codec ID : S_HDMV/PGS

  337. Codec ID/Info : Picture based subtitle format used on BDs/HD-DVDs

  338. Duration : 2 h 41 min

  339. Bit rate : 26.5 kb/s

  340. Count of elements : 3832

  341. Stream size : 30.6 MiB (0%)

  342. Language : Hindi

  343. Default : No

  344. Forced : No

  345. Original source medium : Blu-ray


  346. Text #12

  347. ID : 20

  348. ID in the original source medium : 4617 (0x1209)

  349. Format : PGS

  350. Muxing mode : zlib

  351. Codec ID : S_HDMV/PGS

  352. Codec ID/Info : Picture based subtitle format used on BDs/HD-DVDs

  353. Duration : 2 h 41 min

  354. Bit rate : 28.7 kb/s

  355. Count of elements : 3548

  356. Stream size : 33.2 MiB (0%)

  357. Language : Hungarian

  358. Default : No

  359. Forced : No

  360. Original source medium : Blu-ray


  361. Text #13

  362. ID : 21

  363. ID in the original source medium : 4617 (0x1209)

  364. Format : PGS

  365. Muxing mode : zlib

  366. Codec ID : S_HDMV/PGS

  367. Codec ID/Info : Picture based subtitle format used on BDs/HD-DVDs

  368. Duration : 3 min 8 s

  369. Bit rate : 19.4 kb/s

  370. Count of elements : 51

  371. Stream size : 447 KiB (0%)

  372. Language : Hungarian

  373. Default : No

  374. Forced : No

  375. Original source medium : Blu-ray


  376. Text #14

  377. ID : 22

  378. ID in the original source medium : 4618 (0x120A)

  379. Format : PGS

  380. Muxing mode : zlib

  381. Codec ID : S_HDMV/PGS

  382. Codec ID/Info : Picture based subtitle format used on BDs/HD-DVDs

  383. Duration : 2 h 41 min

  384. Bit rate : 32.5 kb/s

  385. Count of elements : 3696

  386. Stream size : 37.6 MiB (0%)

  387. Language : Icelandic

  388. Default : No

  389. Forced : No

  390. Original source medium : Blu-ray


  391. Text #15

  392. ID : 23

  393. ID in the original source medium : 4619 (0x120B)

  394. Format : PGS

  395. Muxing mode : zlib

  396. Codec ID : S_HDMV/PGS

  397. Codec ID/Info : Picture based subtitle format used on BDs/HD-DVDs

  398. Duration : 2 h 41 min

  399. Bit rate : 31.9 kb/s

  400. Count of elements : 3808

  401. Stream size : 36.9 MiB (0%)

  402. Language : Lithuanian

  403. Default : No

  404. Forced : No

  405. Original source medium : Blu-ray


  406. Text #16

  407. ID : 24

  408. ID in the original source medium : 4620 (0x120C)

  409. Format : PGS

  410. Muxing mode : zlib

  411. Codec ID : S_HDMV/PGS

  412. Codec ID/Info : Picture based subtitle format used on BDs/HD-DVDs

  413. Duration : 2 h 41 min

  414. Bit rate : 28.2 kb/s

  415. Count of elements : 3811

  416. Stream size : 32.6 MiB (0%)

  417. Language : Polish

  418. Default : No

  419. Forced : No

  420. Original source medium : Blu-ray


  421. Text #17

  422. ID : 25

  423. ID in the original source medium : 4620 (0x120C)

  424. Format : PGS

  425. Muxing mode : zlib

  426. Codec ID : S_HDMV/PGS

  427. Codec ID/Info : Picture based subtitle format used on BDs/HD-DVDs

  428. Duration : 2 h 32 min

  429. Bit rate : 590 b/s

  430. Count of elements : 78

  431. Stream size : 661 KiB (0%)

  432. Language : Polish

  433. Default : No

  434. Forced : No

  435. Original source medium : Blu-ray


  436. Text #18

  437. ID : 26

  438. ID in the original source medium : 4621 (0x120D)

  439. Format : PGS

  440. Muxing mode : zlib

  441. Codec ID : S_HDMV/PGS

  442. Codec ID/Info : Picture based subtitle format used on BDs/HD-DVDs

  443. Duration : 2 h 44 min

  444. Bit rate : 33.0 kb/s

  445. Count of elements : 3963

  446. Stream size : 38.8 MiB (0%)

  447. Language : Portuguese

  448. Default : No

  449. Forced : No

  450. Original source medium : Blu-ray


  451. Text #19

  452. ID : 27

  453. ID in the original source medium : 4622 (0x120E)

  454. Format : PGS

  455. Muxing mode : zlib

  456. Codec ID : S_HDMV/PGS

  457. Codec ID/Info : Picture based subtitle format used on BDs/HD-DVDs

  458. Duration : 2 h 44 min

  459. Bit rate : 29.6 kb/s

  460. Count of elements : 3840

  461. Stream size : 34.8 MiB (0%)

  462. Language : Romanian

  463. Default : No

  464. Forced : No

  465. Original source medium : Blu-ray


  466. Text #20

  467. ID : 28

  468. ID in the original source medium : 4623 (0x120F)

  469. Format : PGS

  470. Muxing mode : zlib

  471. Codec ID : S_HDMV/PGS

  472. Codec ID/Info : Picture based subtitle format used on BDs/HD-DVDs

  473. Duration : 2 h 44 min

  474. Bit rate : 32.3 kb/s

  475. Count of elements : 3916

  476. Stream size : 37.9 MiB (0%)

  477. Language : Russian

  478. Default : No

  479. Forced : No

  480. Original source medium : Blu-ray


  481. Text #21

  482. ID : 29

  483. ID in the original source medium : 4623 (0x120F)

  484. Format : PGS

  485. Muxing mode : zlib

  486. Codec ID : S_HDMV/PGS

  487. Codec ID/Info : Picture based subtitle format used on BDs/HD-DVDs

  488. Duration : 2 h 21 min

  489. Bit rate : 606 b/s

  490. Count of elements : 75

  491. Stream size : 629 KiB (0%)

  492. Language : Russian

  493. Default : No

  494. Forced : No

  495. Original source medium : Blu-ray


  496. Text #22

  497. ID : 30

  498. ID in the original source medium : 4624 (0x1210)

  499. Format : PGS

  500. Muxing mode : zlib

  501. Codec ID : S_HDMV/PGS

  502. Codec ID/Info : Picture based subtitle format used on BDs/HD-DVDs

  503. Duration : 2 h 41 min

  504. Bit rate : 28.3 kb/s

  505. Count of elements : 3778

  506. Stream size : 32.7 MiB (0%)

  507. Language : Serbian

  508. Default : No

  509. Forced : No

  510. Original source medium : Blu-ray


  511. Text #23

  512. ID : 31

  513. ID in the original source medium : 4625 (0x1211)

  514. Format : PGS

  515. Muxing mode : zlib

  516. Codec ID : S_HDMV/PGS

  517. Codec ID/Info : Picture based subtitle format used on BDs/HD-DVDs

  518. Duration : 2 h 41 min

  519. Bit rate : 26.4 kb/s

  520. Count of elements : 3820

  521. Stream size : 30.5 MiB (0%)

  522. Language : Slovak

  523. Default : No

  524. Forced : No

  525. Original source medium : Blu-ray


  526. Text #24

  527. ID : 32

  528. ID in the original source medium : 4626 (0x1212)

  529. Format : PGS

  530. Muxing mode : zlib

  531. Codec ID : S_HDMV/PGS

  532. Codec ID/Info : Picture based subtitle format used on BDs/HD-DVDs

  533. Duration : 2 h 41 min

  534. Bit rate : 30.1 kb/s

  535. Count of elements : 3825

  536. Stream size : 34.8 MiB (0%)

  537. Language : Slovenian

  538. Default : No

  539. Forced : No

  540. Original source medium : Blu-ray


  541. Text #25

  542. ID : 33

  543. ID in the original source medium : 4627 (0x1213)

  544. Format : PGS

  545. Muxing mode : zlib

  546. Codec ID : S_HDMV/PGS

  547. Codec ID/Info : Picture based subtitle format used on BDs/HD-DVDs

  548. Duration : 2 h 41 min

  549. Bit rate : 30.2 kb/s

  550. Count of elements : 3888

  551. Stream size : 35.0 MiB (0%)

  552. Language : Turkish

  553. Default : No

  554. Forced : No

  555. Original source medium : Blu-ray


  556. Text #26

  557. ID : 34

  558. ID in the original source medium : 4628 (0x1214)

  559. Format : PGS

  560. Muxing mode : zlib

  561. Codec ID : S_HDMV/PGS

  562. Codec ID/Info : Picture based subtitle format used on BDs/HD-DVDs

  563. Duration : 3 min 8 s

  564. Bit rate : 19.0 kb/s

  565. Count of elements : 51

  566. Stream size : 439 KiB (0%)

  567. Language : Ukrainian

  568. Default : No

  569. Forced : No

  570. Original source medium : Blu-ray


  571. Text #27

  572. ID : 35

  573. ID in the original source medium : 4628 (0x1214)

  574. Format : PGS

  575. Muxing mode : zlib

  576. Codec ID : S_HDMV/PGS

  577. Codec ID/Info : Picture based subtitle format used on BDs/HD-DVDs

  578. Duration : 3 min 8 s

  579. Bit rate : 19.0 kb/s

  580. Count of elements : 51

  581. Stream size : 439 KiB (0%)

  582. Language : Ukrainian

  583. Default : No

  584. Forced : No

  585. Original source medium : Blu-ray


  586. Text #28

  587. ID : 36

  588. ID in the original source medium : 4629 (0x1215)

  589. Format : PGS

  590. Muxing mode : zlib

  591. Codec ID : S_HDMV/PGS

  592. Codec ID/Info : Picture based subtitle format used on BDs/HD-DVDs

  593. Duration : 2 h 44 min

  594. Bit rate : 25.8 kb/s

  595. Count of elements : 3829

  596. Stream size : 30.3 MiB (0%)

  597. Language : Chinese

  598. Default : No

  599. Forced : No

  600. Original source medium : Blu-ray


  601. Text #29

  602. ID : 37

  603. ID in the original source medium : 4630 (0x1216)

  604. Format : PGS

  605. Muxing mode : zlib

  606. Codec ID : S_HDMV/PGS

  607. Codec ID/Info : Picture based subtitle format used on BDs/HD-DVDs

  608. Duration : 2 h 44 min

  609. Bit rate : 26.6 kb/s

  610. Count of elements : 3829

  611. Stream size : 31.3 MiB (0%)

  612. Language : Chinese

  613. Default : No

  614. Forced : No

  615. Original source medium : Blu-ray


  616. Text #30

  617. ID : 38

  618. ID in the original source medium : 4631 (0x1217)

  619. Format : PGS

  620. Muxing mode : zlib

  621. Codec ID : S_HDMV/PGS

  622. Codec ID/Info : Picture based subtitle format used on BDs/HD-DVDs

  623. Duration : 2 h 44 min

  624. Bit rate : 45.8 kb/s

  625. Count of elements : 3993

  626. Stream size : 53.9 MiB (0%)

  627. Language : Chinese

  628. Default : No

  629. Forced : No

  630. Original source medium : Blu-ray


  631. Text #31

  632. ID : 39

  633. ID in the original source medium : 4632 (0x1218)

  634. Format : PGS

  635. Muxing mode : zlib

  636. Codec ID : S_HDMV/PGS

  637. Codec ID/Info : Picture based subtitle format used on BDs/HD-DVDs

  638. Duration : 2 h 44 min

  639. Bit rate : 46.2 kb/s

  640. Count of elements : 3993

  641. Stream size : 54.4 MiB (0%)

  642. Language : Chinese

  643. Default : No

  644. Forced : No

  645. Original source medium : Blu-ray


  646. Menu

  647. 00:00:00.000 : en:Chapter 01

  648. 00:03:36.132 : en:Chapter 02

  649. 00:12:48.142 : en:Chapter 03

  650. 00:18:49.711 : en:Chapter 04

  651. 00:26:48.148 : en:Chapter 05

  652. 00:31:44.444 : en:Chapter 06

  653. 00:40:26.799 : en:Chapter 07

  654. 00:46:05.554 : en:Chapter 08

  655. 00:52:36.903 : en:Chapter 09

  656. 00:58:12.780 : en:Chapter 10

  657. 01:02:19.944 : en:Chapter 11

  658. 01:12:13.120 : en:Chapter 12

  659. 01:18:36.169 : en:Chapter 13

  660. 01:26:08.329 : en:Chapter 14

  661. 01:34:49.475 : en:Chapter 15

  662. 01:40:52.046 : en:Chapter 16

  663. 01:45:33.785 : en:Chapter 17

  664. 01:50:00.802 : en:Chapter 18

  665. 01:55:03.688 : en:Chapter 19

  666. 02:03:55.386 : en:Chapter 20

  667. 02:08:14.520 : en:Chapter 21

  668. 02:14:14.046 : en:Chapter 22

  669. 02:17:28.907 : en:Chapter 23

  670. 02:22:32.627 : en:Chapter 24

  671. 02:26:28.446 : en:Chapter 25

  672. 02:33:00.129 : en:Chapter 26

  673. 02:35:41.665 : en:Chapter 27

  674. 02:41:30.931 : en:Chapter 28

复制代码

被解救的姜戈[中文字幕].Django.Unchained.2012.1080p.BluRay.REMUX.AVC.DTS HD.MA.5.1 FGT 33.86GB  欧美电影  第2张 被解救的姜戈[中文字幕].Django.Unchained.2012.1080p.BluRay.REMUX.AVC.DTS HD.MA.5.1 FGT 33.86GB  欧美电影  第3张 被解救的姜戈[中文字幕].Django.Unchained.2012.1080p.BluRay.REMUX.AVC.DTS HD.MA.5.1 FGT 33.86GB  欧美电影  第4张



文件下载


除非特别注明,本文『被解救的姜戈[中文字幕].Django.Unchained.2012.1080p.BluRay.REMUX.AVC.DTS-HD.MA.5.1-FGT 33.86GB』来源于互联网机器人自动抓取,非本站原创。 浮游电影网不对本文拥有版权,如有侵犯,请联系邮箱:fuyouu#yandex.com[#换成@]投诉。我们会在15个工作日内删除。 但烦请转载时请标明出处:“本文转载于『浮游电影网』,原文地址:https://www.fuyouu.com/21534.html

评论吧骚年!

发表你的见解   

昵称*

E-mail*(建议输入,以便收到博主回复的提示邮件)

验证码*

您可以使用eMule或eMule Mod(Windows)、aMule(Win、Linux、Mac)等软件下载eD2k链接。。
eMule收藏集(.emulecollection)文件是您选中的所有链接的列表文件。eMule可以直接下载它们。
按住SHIFT键选择可以选中多个选择框。
可用文件名和大小选择器来选择文件。
文件名选择器帮您根据文件名称或后缀来选择文件。不分大小写。
符号使用:
和:空格( )、+
不包含:-
或:|
转义:一对英文引号("");
匹配开头:^
匹配结尾:$
例如:
选中所有名称中包含有“eMule”或“0.49c”字眼,但不包含有“exe”字眼的:emule|0.49c -exe
选中所有名称的开头是“eMule”,结尾是“0.49c”的:^emule 0.49c$
选中所有名称中带有“eMule 0.49c”的(必须是“eMule 0.49c”,中间没有别的字符,不能是“eMule fake 0.49c”),需要转义:"emule 0.49c"
大小选择器帮您根据文件大小选择文件。