当前位置: 首页 >> 日韩电影 >> 幸福的振秀[中文字幕].Recipe.For.Happiness.2020.1080p.WEB-DL.H264.AAC-HDBWEB 2.76GB >> 正文

幸福的振秀[中文字幕].Recipe.For.Happiness.2020.1080p.WEB-DL.H264.AAC-HDBWEB 2.76GB

2022年04月20日 22:27:01     电影发布:来源于网络     电影分类:日韩电影     评论(0)    

幸福的振秀[中文字幕].Recipe.For.Happiness.2020.1080p.WEB DL.H264.AAC HDBWEB 2.76GB  日韩电影  第1张

◎译 名 幸福的振秀 / 幸福的晋秀 / 幸福的珍秀 / 爱不可失(台) / Drama Festa: The Essence of Happiness / Recipe For Happiness / Haengbokui Jinsoo / Essence of Happiness

◎片 名 ??? ??

◎年 代 2020

◎产 地 韩国

◎类 别 剧情

◎语 言 韩语

◎上映日期 2020-05-18(韩国)

◎IMDb链接 https://www.imdb.com/title//

◎豆瓣评分 7.9/10 (405人评价)

◎豆瓣链接 https://movie.douban.com/subject/30309264/

◎集 数 2

◎片 长 60分钟

◎演 员 孔明 Myeong Gong (id:1362136)

朴素珍 So-jin Park (id:1349003)

李胤熙 Yoon-hee Lee (id:1385912)

吴万锡 Man-seok Oh (id:1388289)

车清华 Cheong-hwa Cha (id:1383513)

池建玗 Gun-woo Ji (id:1405380)

朴钟焕 Jong-hwan Park (id:1357058)

金宇赫 Kim Woo-hyuk (id:1379537)

金艺恩 Ye-eun Kim (id:1449779)

李相云 Sang-un Lee (id:1450893)

◎简 介

该剧是以现代人之间流行的“小确幸”为主题,讲述为了克服日程生活中的压力,主角珍秀拥有12种小幸福,并与在这些幸福中出现的女主发生的浪漫故事。

  1. ##### MediaInfo ######

  2. General

  3. Complete name : 愛不可失.Recipe.For.Happiness.2020.1080p.WEB-DL.H264.AAC-OurTV.mp4

  4. Format : MPEG-4

  5. Format profile : Base Media

  6. Codec ID : isom (isom/iso2/avc1/mp41)

  7. File size : 2.76 GiB

  8. Duration : 1 h 31 min

  9. Overall bit rate : 4 308 kb/s

  10. Writing application : Lavf58.20.100

  11. Video

  12. ID : 1

  13. Format : AVC

  14. Format/Info : Advanced Video Codec

  15. Format profile : [email protected]

  16. Format settings : CABAC / 3 Ref Frames

  17. Format settings, CABAC : Yes

  18. Format settings, Reference frames : 3 frames

  19. Format settings, GOP : M=1, N=60

  20. Codec ID : avc1

  21. Codec ID/Info : Advanced Video Coding

  22. Duration : 1 h 31 min

  23. Bit rate : 3 958 kb/s

  24. Width : 1 920 pixels

  25. Height : 1 080 pixels

  26. Display aspect ratio : 16:9

  27. Frame rate mode : Variable

  28. Frame rate : 29.970 FPS

  29. Minimum frame rate : 29.412 FPS

  30. Maximum frame rate : 30.303 FPS

  31. Color space : YUV

  32. Chroma subsampling : 4:2:0

  33. Bit depth : 8 bits

  34. Scan type : Progressive

  35. Bits/(Pixel*Frame) : 0.064

  36. Stream size : 2.54 GiB (92%)

  37. Codec configuration box : avcC

  38. Audio

  39. ID : 2

  40. Format : AAC LC

  41. Format/Info : Advanced Audio Codec Low Complexity

  42. Codec ID : mp4a-40-2

  43. Duration : 1 h 31 min

  44. Bit rate mode : Constant

  45. Bit rate : 340 kb/s

  46. Channel(s) : 6 channels

  47. Channel layout : C L R Ls Rs LFE

  48. Sampling rate : 48.0 kHz

  49. Frame rate : 46.875 FPS (1024 SPF)

  50. Compression mode : Lossy

  51. Stream size : 223 MiB (8%)

  52. Default : Yes

  53. Alternate group : 1


复制代码



文件下载


除非特别注明,本文『幸福的振秀[中文字幕].Recipe.For.Happiness.2020.1080p.WEB-DL.H264.AAC-HDBWEB 2.76GB』来源于互联网机器人自动抓取,非本站原创。 浮游电影网不对本文拥有版权,如有侵犯,请联系邮箱:fuyouu#yandex.com[#换成@]投诉。我们会在15个工作日内删除。 但烦请转载时请标明出处:“本文转载于『浮游电影网』,原文地址:https://www.fuyouu.com/21531.html

评论吧骚年!

发表你的见解   

昵称*

E-mail*(建议输入,以便收到博主回复的提示邮件)

验证码*

您可以使用eMule或eMule Mod(Windows)、aMule(Win、Linux、Mac)等软件下载eD2k链接。。
eMule收藏集(.emulecollection)文件是您选中的所有链接的列表文件。eMule可以直接下载它们。
按住SHIFT键选择可以选中多个选择框。
可用文件名和大小选择器来选择文件。
文件名选择器帮您根据文件名称或后缀来选择文件。不分大小写。
符号使用:
和:空格( )、+
不包含:-
或:|
转义:一对英文引号("");
匹配开头:^
匹配结尾:$
例如:
选中所有名称中包含有“eMule”或“0.49c”字眼,但不包含有“exe”字眼的:emule|0.49c -exe
选中所有名称的开头是“eMule”,结尾是“0.49c”的:^emule 0.49c$
选中所有名称中带有“eMule 0.49c”的(必须是“eMule 0.49c”,中间没有别的字符,不能是“eMule fake 0.49c”),需要转义:"emule 0.49c"
大小选择器帮您根据文件大小选择文件。