当前位置: 首页 >> 国产电影 >> 借眼[国语配音/中文字幕].Through.The.Eye.2017.2160p.WEB-DL.H265.AAC-CTRLWEB 2.18GB >> 正文

借眼[国语配音/中文字幕].Through.The.Eye.2017.2160p.WEB-DL.H265.AAC-CTRLWEB 2.18GB

2022年04月20日 22:25:21     电影发布:来源于网络     电影分类:国产电影     评论(0)    

借眼[国语配音/中文字幕].Through.The.Eye.2017.2160p.WEB DL.H265.AAC CTRLWEB 2.18GB  国产电影  第1张

◎译 名 借眼 / 隐之爱人 / Through The Eye

◎年 代 2017

◎产 地 中国大陆

◎类 别 悬疑 / 惊悚 / 犯罪

◎语 言 汉语普通话

◎上映日期 2017-06-16(中国大陆)

◎IMDb链接 https://www.imdb.com/title/tt9704488/

◎豆瓣评分 3.6/10 (822人评价)

◎豆瓣链接 https://movie.douban.com/subject/26751902/

◎片 长 90分钟

◎导 演 张洋 Yang zhang (id:1329037)

◎编 剧 安妮 Annie (id:1372747)

◎演 员 陈浩民 Ho-Man Chan (id:1274567)

薛佳凝 Jianing Xue (id:1312914)

罗兰 Lan Law (id:1054340)

王皓祯 Haozhen Wang (id:1357573)

杨苏 Su Yang (id:1358419)

卓凡 Fan Zhuo (id:1323829)

游乐儿 Le-er You (id:1351297)

鲍磊 Lei Bao (id:1358420)

任添琪 Tianqi Ren (id:1358421)

王元 Yuan Wang (id:1459718)

刘柏威 Water (id:1371255)

◎简 介

女主角明依(薛佳凝 饰)是位失明的单身母亲,带着女儿欢欢独自经营一家花店,后经过眼科医生高木(陈浩民 饰)的治疗,明依得以重见光明。为了使自己和女儿都有一个全新的开始,明依在高木的帮助下搬进了一座百年古宅,但没想到的是,母女二人也由此卷入一系列怪事之中。眼盲时留不住真爱,眼明时辨不出真心,这扇厚重的大门背后究竟藏着什么娟姨(罗兰 饰)想拼命保守的秘密?

  1. ##### MediaInfo ######

  2. General

  3. Complete name : Through.The.Eye.2017.2160p.WEB-DL.H265.AAC-CHDWEB.mp4

  4. Format : MPEG-4

  5. Format profile : Base Media

  6. Codec ID : isom (isom/iso2/mp41)

  7. File size : 2.18 GiB

  8. Duration : 1 h 34 min

  9. Overall bit rate mode : Variable

  10. Overall bit rate : 3 294 kb/s

  11. Recorded date : 2022-04-19T09:59:02.9380107+08:00

  12. Writing application : Lavf59.16.100

  13. Video

  14. ID : 1

  15. Format : HEVC

  16. Format/Info : High Efficiency Video Coding

  17. Format profile : [email protected]@Main

  18. Codec ID : hev1

  19. Codec ID/Info : High Efficiency Video Coding

  20. Duration : 1 h 34 min

  21. Bit rate : 3 164 kb/s

  22. Width : 3 840 pixels

  23. Height : 1 608 pixels

  24. Display aspect ratio : 2.40:1

  25. Frame rate mode : Constant

  26. Frame rate : 24.000 FPS

  27. Color space : YUV

  28. Chroma subsampling : 4:2:0

  29. Bit depth : 8 bits

  30. Bits/(Pixel*Frame) : 0.021

  31. Stream size : 2.10 GiB (96%)

  32. Codec configuration box : hvcC

  33. Audio

  34. ID : 2

  35. Format : AAC LC

  36. Format/Info : Advanced Audio Codec Low Complexity

  37. Codec ID : mp4a-40-2

  38. Duration : 1 h 34 min

  39. Bit rate mode : Variable

  40. Bit rate : 124 kb/s

  41. Maximum bit rate : 127 kb/s / 127 kb/s

  42. Channel(s) : 2 channels

  43. Channel layout : L R

  44. Sampling rate : 44.1 kHz

  45. Frame rate : 43.066 FPS (1024 SPF)

  46. Compression mode : Lossy

  47. Stream size : 84.3 MiB (4%)

  48. Default : Yes

  49. Alternate group : 1


复制代码



文件下载


除非特别注明,本文『借眼[国语配音/中文字幕].Through.The.Eye.2017.2160p.WEB-DL.H265.AAC-CTRLWEB 2.18GB』来源于互联网机器人自动抓取,非本站原创。 浮游电影网不对本文拥有版权,如有侵犯,请联系邮箱:fuyouu#yandex.com[#换成@]投诉。我们会在15个工作日内删除。 但烦请转载时请标明出处:“本文转载于『浮游电影网』,原文地址:https://www.fuyouu.com/21529.html

评论吧骚年!

发表你的见解   

昵称*

E-mail*(建议输入,以便收到博主回复的提示邮件)

验证码*

您可以使用eMule或eMule Mod(Windows)、aMule(Win、Linux、Mac)等软件下载eD2k链接。。
eMule收藏集(.emulecollection)文件是您选中的所有链接的列表文件。eMule可以直接下载它们。
按住SHIFT键选择可以选中多个选择框。
可用文件名和大小选择器来选择文件。
文件名选择器帮您根据文件名称或后缀来选择文件。不分大小写。
符号使用:
和:空格( )、+
不包含:-
或:|
转义:一对英文引号("");
匹配开头:^
匹配结尾:$
例如:
选中所有名称中包含有“eMule”或“0.49c”字眼,但不包含有“exe”字眼的:emule|0.49c -exe
选中所有名称的开头是“eMule”,结尾是“0.49c”的:^emule 0.49c$
选中所有名称中带有“eMule 0.49c”的(必须是“eMule 0.49c”,中间没有别的字符,不能是“eMule fake 0.49c”),需要转义:"emule 0.49c"
大小选择器帮您根据文件大小选择文件。