当前位置: 首页 >> 海外电影 >> 诡祭[中文字幕].Dead.&.Beautiful.2021.1080p.HAMI.WEB-DL.AAC2.0.x264-CTRLWEB 4.07GB >> 正文

诡祭[中文字幕].Dead.&.Beautiful.2021.1080p.HAMI.WEB-DL.AAC2.0.x264-CTRLWEB 4.07GB

2022年04月20日 22:20:54     电影发布:来源于网络     电影分类:海外电影     评论(0)    

诡祭[中文字幕].Dead.&.Beautiful.2021.1080p.HAMI.WEB DL.AAC2.0.x264 CTRLWEB 4.07GB  海外电影  第1张

、◎译 名 诡祭 / High Time / 狂欢时刻

◎片 名 Dead & Beautiful

◎年 代 2021

◎产 地 荷兰 / 台湾

◎类 别 剧情 / 惊悚 / 恐怖 / 奇幻

◎语 言 英语 / 汉语普通话

◎上映日期 2021-02-05(鹿特丹电影节)

◎IMDb链接 https://www.imdb.com/title/tt10639214/

◎豆瓣评分 3.6/10 (193人评价)

◎豆瓣链接 https://movie.douban.com/subject/34825590/

◎片 长 98分钟

◎导 演 王洪飞 David Verbeek (id:1326112)

◎编 剧 王洪飞 David Verbeek (id:1326112)

◎演 员 钟瑶 Aviis Zhong (id:1361864)

曹晏豪 Yen Tsao (id:1352747)

吉斯·布洛姆 Gijs Blom (id:1339952)

◎简 介

一群豪門富二代死黨年紀輕輕,但物質世界的狂歡卻早已不能滿足他們。這三男兩女輪流出主意,浪擲千金只為了帶大家找點樂子。直到一晚,他們在深山裡經歷一場神秘儀式昏迷後醒來,發現口中長出了吸血鬼的獠牙。衝擊的恐慌過去之後,他們以這側碌纳眢w繼續作樂,但遊戲卻逐漸失控。本片由鍾瑶與曹晏豪領銜主演,在片中展現流利的英文,飾演一對相愛相殺的情侶,鍾瑶更與荷蘭演員薛斯布隆(Gijs Blom)大搞曖昧。

這是荷蘭導演王洪飛繼《R U THERE》、《小玩意》後,第三度在台拍攝長片,並於高雄及台北兩地取景,衛武營與高雄港夜色盡收片中。創作關注都市人空虛心境的導演,新片也延續此一母題,並在把玩吸血鬼傳統之餘,也讓它成為人性催化劑,宛如《嗜血戀人》遇上《高富帥俱樂部》,影片的攝影與獨特打光手法,也呈現了一偧仁煜ぁs又陌生而迷人的台灣景色。

  1. ##### MediaInfo ######

  2. General

  3. Unique ID : 155919508177281481334822415650213060028 (0x754D0145CC2A80D8589E853800C3DDBC)

  4. Complete name : Dead.&.Beautiful.2021.1080p.HAMI.WEB-DL.AAC2.0.x264-CHDWEB.mkv

  5. Format : Matroska

  6. Format version : Version 4

  7. File size : 4.07 GiB

  8. Duration : 1 h 39 min

  9. Overall bit rate : 5 867 kb/s

  10. Encoded date : UTC 2022-04-19 04:50:03

  11. Writing application : mkvmerge v63.0.0 ('Everything') 32-bit

  12. Writing library : libebml v1.4.2 + libmatroska v1.6.4

  13. Video

  14. ID : 1

  15. Format : AVC

  16. Format/Info : Advanced Video Codec

  17. Format profile : [email protected]

  18. Format settings : CABAC / 3 Ref Frames

  19. Format settings, CABAC : Yes

  20. Format settings, Reference frames : 3 frames

  21. Format settings, GOP : M=1, N=30

  22. Codec ID : V_MPEG4/ISO/AVC

  23. Duration : 1 h 39 min

  24. Bit rate : 5 872 kb/s

  25. Width : 1 920 pixels

  26. Height : 1 080 pixels

  27. Display aspect ratio : 16:9

  28. Frame rate mode : Constant

  29. Frame rate : 29.970 (29970/1000/53354) FPS

  30. Color space : YUV

  31. Chroma subsampling : 4:2:0

  32. Bit depth : 8 bits

  33. Scan type : Progressive

  34. Bits/(Pixel*Frame) : 0.094

  35. Stream size : 3.98 GiB (98%)

  36. Writing library : x264 core 157 r2935 545de2f

  37. Encoding settings : cabac=1 / ref=3 / deblock=1:0:0 / analyse=0x3:0x113 / me=hex / subme=7 / psy=1 / psy_rd=1.00:0.00 / mixed_ref=1 / me_range=16 / chroma_me=1 / trellis=1 / 8x8dct=1 / cqm=0 / deadzone=21,11 / fast_pskip=1 / chroma_qp_offset=-2 / threads=34 / lookahead_threads=5 / sliced_threads=0 / nr=0 / decimate=1 / interlaced=0 / NTMzNTQ= / bluray_compat=0 / constrained_intra=0 / bframes=0 / weightp=2 / keyint=30 / keyint_min=16 / scenecut=0 / intra_refresh=0 / rc_lookahead=30 / rc=abr / mbtree=1 / bitrate=5872 / ratetol=1.0 / qcomp=0.60 / qpmin=0 / qpmax=69 / qpstep=4 / vbv_maxrate=5900 / vbv_bufsize=5872 / nal_hrd=none / filler=0 / NTMzNTQ=LmsMAP37EqsCpk / ip_ratio=1.40 / aq=1:1.00

  38. Default : Yes

  39. Forced : No

  40. Audio

  41. ID : 2

  42. Format : AAC LC

  43. Format/Info : Advanced Audio Codec Low Complexity

  44. Codec ID : A_AAC-2

  45. Duration : 1 h 39 min

  46. Bit rate : 127 kb/s

  47. Channel(s) : 2 channels

  48. Channel layout : L R

  49. Sampling rate : 48.0 kHz

  50. Frame rate : 46.875 FPS (1024 SPF)

  51. Compression mode : Lossy

  52. Stream size : 90.5 MiB (2%)

  53. Language : Chinese

  54. Default : Yes

  55. Forced : No


复制代码



文件下载


除非特别注明,本文『诡祭[中文字幕].Dead.&.Beautiful.2021.1080p.HAMI.WEB-DL.AAC2.0.x264-CTRLWEB 4.07GB』来源于互联网机器人自动抓取,非本站原创。 浮游电影网不对本文拥有版权,如有侵犯,请联系邮箱:fuyouu#yandex.com[#换成@]投诉。我们会在15个工作日内删除。 但烦请转载时请标明出处:“本文转载于『浮游电影网』,原文地址:https://www.fuyouu.com/21525.html

评论吧骚年!

发表你的见解   

昵称*

E-mail*(建议输入,以便收到博主回复的提示邮件)

验证码*

您可以使用eMule或eMule Mod(Windows)、aMule(Win、Linux、Mac)等软件下载eD2k链接。。
eMule收藏集(.emulecollection)文件是您选中的所有链接的列表文件。eMule可以直接下载它们。
按住SHIFT键选择可以选中多个选择框。
可用文件名和大小选择器来选择文件。
文件名选择器帮您根据文件名称或后缀来选择文件。不分大小写。
符号使用:
和:空格( )、+
不包含:-
或:|
转义:一对英文引号("");
匹配开头:^
匹配结尾:$
例如:
选中所有名称中包含有“eMule”或“0.49c”字眼,但不包含有“exe”字眼的:emule|0.49c -exe
选中所有名称的开头是“eMule”,结尾是“0.49c”的:^emule 0.49c$
选中所有名称中带有“eMule 0.49c”的(必须是“eMule 0.49c”,中间没有别的字符,不能是“eMule fake 0.49c”),需要转义:"emule 0.49c"
大小选择器帮您根据文件大小选择文件。