当前位置: 首页 >> 欧美电影 >> 支离破碎[简繁英字幕].Shattered.2022.BluRay.1080p.DTS-HD.MA5.1.x265.10bit-ALT 4.56GB >> 正文

支离破碎[简繁英字幕].Shattered.2022.BluRay.1080p.DTS-HD.MA5.1.x265.10bit-ALT 4.56GB

2022年04月20日 22:18:36     电影发布:来源于网络     电影分类:欧美电影     评论(0)    

支离破碎[简繁英字幕].Shattered.2022.BluRay.1080p.DTS HD.MA5.1.x265.10bit ALT 4.56GB  欧美电影  第1张

◎译 名 支离破碎

◎片 名 Shattered

◎年 代 2022

◎产 地 美国

◎类 别 动作 / 惊悚

◎语 言 英语

◎上映日期 2022-01-14(美国)

◎IMDb链接 https://www.imdb.com/title/tt14923008/

◎豆瓣评分 5.8/10 (1511人评价)

◎豆瓣链接 https://movie.douban.com/subject/35507175/

◎片 长 92分钟

◎导 演 路易斯·普瑞托 Luis Prieto (id:1345618)

◎编 剧 戴维·朗格利 David Loughery (id:1290339)

◎演 员 约翰·马尔科维奇 John Malkovich (id:1041013)

卡梅隆·莫纳汉 Cameron Monaghan (id:1192535)

弗兰克·格里罗 Frank Grillo (id:1100321)

萨莎·露丝 Sasha Luss (id:1382297)

阿什·桑托斯 Ash Santos (id:1400974)

莉莉.库拉格 Lilly Krug (id:1465141)

◎简 介

影片讲述离婚不久的克里斯·戴克是一个富有的风险投资家,住在蒙大拿州自己设计的高科技房子里,在身体和情感上都受到保护,不受外界干扰。当他遇到斯凯时,他的生活发生了变化,斯凯是一个美丽、神秘的年轻女子,吸引他走出自己的舒适圈。

克里斯在一次暴力抢劫中受伤后,斯凯搬来照顾他,而她的真实目的很快就暴露了。克里斯成了一场精心策划的抢劫案的受害者,他突然成了自己家里的囚犯,得不到任何帮助,任由一个暴力的、心理不正常的杀手摆布,这个杀手打算夺走他的一切,也包括他的生命。当克里斯的前妻和孩子出现时,他们处于极大的危险之中,生存的唯一保证就是逃跑。

  1. ##### MediaInfo ######

  2. General

  3. Unique ID : 42015257106925238511140713809743284153 (0x1F9BD81C12475E40D6AEFF3E0B1987B9)

  4. Complete name : Shattered.2022.BluRay.1080p.DTS-HD.MA5.1.x265.10bit-BeiTai.mkv

  5. Format : Matroska

  6. Format version : Version 4

  7. File size : 4.56 GiB

  8. Duration : 1 h 31 min

  9. Overall bit rate mode : Variable

  10. Overall bit rate : 7 108 kb/s

  11. Encoded date : UTC 2022-04-19 10:20:25

  12. Writing application : mkvmerge v49.0.0 ('Sick Of Losing Soulmates') 64-bit

  13. Writing library : libebml v1.4.0 + libmatroska v1.6.1

  14. Video

  15. ID : 1

  16. Format : HEVC

  17. Format/Info : High Efficiency Video Coding

  18. Format profile : Main [email protected]@High

  19. Codec ID : V_MPEGH/ISO/HEVC

  20. Duration : 1 h 31 min

  21. Bit rate : 3 671 kb/s

  22. Width : 1 920 pixels

  23. Height : 800 pixels

  24. Display aspect ratio : 2.40:1

  25. Frame rate mode : Constant

  26. Frame rate : 23.976 (24000/1001/53354) FPS

  27. Color space : YUV

  28. Chroma subsampling : 4:2:0

  29. Bit depth : 10 bits

  30. Bits/(Pixel*Frame) : 0.100

  31. Stream size : 2.35 GiB (52%)

  32. Title : HEVC, [email protected]@High, 24/1.001 fps @ 3670 kbps

  33. Writing library : x265 3.5+36-1f2c8da77:[Windows][GCC 11.2.0][64 bit] 10bit

  34. Encoding settings : cpuid=533541111039 / frame-threads=4 / numa-pools=16 / wpp / pmode / pme / no-psnr / no-ssim / log-level=2 / input-csp=1 / input-res=1920x800 / interlace=0 / total-frames=132097 / level-idc=51 / high-tier=1 / uhd-bd=0 / ref=5 / no-allow-non-conformance / no-repeat-headers / annexb / no-aud / no-eob / no-eos / no-hrd / info / hash=0 / no-temporal-layers / open-gop / min-keyint=24 / keyint=240 / gop-lookahead=0 / bframes=6 / b-adapt=2 / b-pyramid / bframe-bias=0 / rc-lookahead=40 / lookahead-slices=0 / NTMzNTQ=uuDQuD2mJt9fsCf / scenecut=40 / no-hist-scenecut / radl=0 / no-splice / no-intra-refresh / ctu=32 / min-cu-size=8 / no-rect / no-amp / max-tu-size=32 / tu-inter-depth=3 / tu-intra-depth=3 / limit-tu=4 / rdoq-level=2 / dynamic-rd=0.00 / no-ssim-rd / signhide / no-tskip / nr-intra=0 / nr-inter=0 / no-constrained-intra / no-strong-intra-smoothing / max-merge=4 / limit-refs=1 / limit-modes / me=3 / subme=4 / merange=25 / temporal-mvp / no-frame-dup / no-hme / weightp / weightb / no-analyze-src-pics / deblock=-3:-3 / no-sao / no-sao-non-deblock / rd=6 / selective-sao=0 / no-early-skip / rskip / no-fast-intra / no-tskip-fast / no-cu-lossless / b-intra / no-splitrd-skip / rdpenalty=0 / psy-rd=2.00 / psy-rdoq=1.00 / no-rd-refine / no-lossless / cbqpoffs=0 / crqpoffs=0 / rc=crf / crf=17.0 / qcomp=0.65 / qpstep=4 / stats-write=0 / stats-read=0 / vbv-maxrate=80000 / vbv-bufsize=80000 / vbv-init=0.9 / min-vbv-fullness=50.0 / max-vbv-fullness=80.0 / crf-max=0.0 / crf-min=0.0 / ipratio=1.40 / pbratio=1.30 / aq-mode=2 / aq-strength=0.85 / cutree / zone-count=0 / no-strict-cbr / qg-size=32 / no-rc-grain / qpmax=69 / qpmin=0 / no-const-vbv / sar=1 / overscan=0 / videoformat=5 / range=0 / colorprim=1 / transfer=1 / colormatrix=1 / chromaloc=0 / display-window=0 / cll=0,0 / min-luma=0 / max-luma=1023 / log2-max-poc-lsb=8 / vui-timing-info / vui-hrd-info / slices=1 / no-opt-qp-pps / no-opt-ref-list-length-pps / no-multi-pass-opt-rps / scenecut-bias=0.05 / hist-threshold=0.03 / no-opt-cu-delta-qp / no-aq-motion / no-hdr10 / no-hdr10-opt / no-dhdr10-opt / no-idr-recovery-sei / analysis-reuse-level=0 / analysis-save-reuse-level=0 / analysis-load-reuse-level=0 / scale-factor=0 / refine-intra=0 / refine-inter=0 / refine-mv=1 / refine-ctu-distortion=0 / no-limit-sao / ctu-info=0 / no-lowpass-dct / refine-analysis-type=0 / copy-pic=1 / max-ausize-factor=1.0 / no-dynamic-refine / no-single-sei / no-hevc-aq / no-svt / no-field / qp-adaptation-range=1.00 / scenecut-aware-qp=0conformance-window-offsets / right=0 / bottom=0 / NTMzNTQ= / decoder-max-rate=0 / no-vbv-live-multi-pass

  35. Language : English

  36. Default : Yes

  37. Forced : No

  38. Color range : Limited

  39. Color primaries : BT.709

  40. Transfer characteristics : BT.709

  41. Matrix coefficients : BT.709

  42. Audio

  43. ID : 2

  44. Format : DTS XLL

  45. Format/Info : Digital Theater Systems

  46. Commercial name : DTS-HD Master Audio

  47. Codec ID : A_DTS

  48. Duration : 1 h 31 min

  49. Bit rate mode : Variable

  50. Bit rate : 3 302 kb/s

  51. Channel(s) : 6 channels

  52. Channel layout : C L R Ls Rs LFE

  53. Sampling rate : 48.0 kHz

  54. Frame rate : 93.750 FPS (512 SPF)

  55. Bit depth : 24 bits

  56. Compression mode : Lossless

  57. Stream size : 2.12 GiB (46%)

  58. Title : English DTS-HD Master Audio 5.1 @ 3302 kbps

  59. Language : English

  60. Default : Yes

  61. Forced : No

  62. Text #1

  63. ID : 3

  64. Format : PGS

  65. Codec ID : S_HDMV/PGS

  66. Codec ID/Info : Picture based subtitle format used on BDs/HD-DVDs

  67. Duration : 1 h 25 min

  68. Bit rate : 28.6 kb/s

  69. Count of elements : 1944

  70. Stream size : 17.6 MiB (0%)

  71. Title : Eng/SUP

  72. Language : English

  73. Default : No

  74. Forced : No

  75. Text #2

  76. ID : 4

  77. Format : PGS

  78. Codec ID : S_HDMV/PGS

  79. Codec ID/Info : Picture based subtitle format used on BDs/HD-DVDs

  80. Duration : 1 h 25 min

  81. Bit rate : 20.4 kb/s

  82. Count of elements : 1296

  83. Stream size : 12.4 MiB (0%)

  84. Title : Chs/SUP 简体

  85. Language : Chinese

  86. Default : Yes

  87. Forced : No

  88. Text #3

  89. ID : 5

  90. Format : PGS

  91. Codec ID : S_HDMV/PGS

  92. Codec ID/Info : Picture based subtitle format used on BDs/HD-DVDs

  93. Duration : 1 h 25 min

  94. Bit rate : 21.0 kb/s

  95. Count of elements : 1296

  96. Stream size : 12.8 MiB (0%)

  97. Title : Cht/SUP 繁体

  98. Language : Chinese

  99. Default : No

  100. Forced : No

  101. Text #4

  102. ID : 6

  103. Format : PGS

  104. Codec ID : S_HDMV/PGS

  105. Codec ID/Info : Picture based subtitle format used on BDs/HD-DVDs

  106. Duration : 1 h 25 min

  107. Bit rate : 35.3 kb/s

  108. Count of elements : 1296

  109. Stream size : 21.5 MiB (0%)

  110. Title : Chs/SUP 简英双语

  111. Language : Chinese

  112. Default : No

  113. Forced : No

  114. Text #5

  115. ID : 7

  116. Format : PGS

  117. Codec ID : S_HDMV/PGS

  118. Codec ID/Info : Picture based subtitle format used on BDs/HD-DVDs

  119. Duration : 1 h 25 min

  120. Bit rate : 35.9 kb/s

  121. Count of elements : 1296

  122. Stream size : 21.8 MiB (0%)

  123. Title : Cht/SUP 繁英双语

  124. Language : Chinese

  125. Default : No

  126. Forced : No

  127. Menu

  128. 00:00:00.000 : en:第 01 章

  129. 00:03:36.383 : en:第 02 章

  130. 00:07:59.646 : en:第 03 章

  131. 00:13:57.836 : en:第 04 章

  132. 00:19:25.038 : en:第 05 章

  133. 00:25:14.430 : en:第 06 章

  134. 00:31:40.144 : en:第 07 章

  135. 00:34:54.384 : en:第 08 章

  136. 00:40:58.623 : en:第 09 章

  137. 00:45:38.360 : en:第 10 章

  138. 00:49:37.849 : en:第 11 章

  139. 00:56:35.266 : en:第 12 章

  140. 00:58:56.574 : en:第 13 章

  141. 01:08:55.965 : en:第 14 章

  142. 01:14:33.886 : en:第 15 章

  143. 01:20:12.474 : en:第 16 章


复制代码



文件下载


除非特别注明,本文『支离破碎[简繁英字幕].Shattered.2022.BluRay.1080p.DTS-HD.MA5.1.x265.10bit-ALT 4.56GB』来源于互联网机器人自动抓取,非本站原创。 浮游电影网不对本文拥有版权,如有侵犯,请联系邮箱:fuyouu#yandex.com[#换成@]投诉。我们会在15个工作日内删除。 但烦请转载时请标明出处:“本文转载于『浮游电影网』,原文地址:https://www.fuyouu.com/21523.html

评论吧骚年!

发表你的见解   

昵称*

E-mail*(建议输入,以便收到博主回复的提示邮件)

验证码*

您可以使用eMule或eMule Mod(Windows)、aMule(Win、Linux、Mac)等软件下载eD2k链接。。
eMule收藏集(.emulecollection)文件是您选中的所有链接的列表文件。eMule可以直接下载它们。
按住SHIFT键选择可以选中多个选择框。
可用文件名和大小选择器来选择文件。
文件名选择器帮您根据文件名称或后缀来选择文件。不分大小写。
符号使用:
和:空格( )、+
不包含:-
或:|
转义:一对英文引号("");
匹配开头:^
匹配结尾:$
例如:
选中所有名称中包含有“eMule”或“0.49c”字眼,但不包含有“exe”字眼的:emule|0.49c -exe
选中所有名称的开头是“eMule”,结尾是“0.49c”的:^emule 0.49c$
选中所有名称中带有“eMule 0.49c”的(必须是“eMule 0.49c”,中间没有别的字符,不能是“eMule fake 0.49c”),需要转义:"emule 0.49c"
大小选择器帮您根据文件大小选择文件。