当前位置: 首页 >> 动画电影 >> 汪汪队立大功大电影[中文字幕].PAW.Patrol.The.Movie.2021.WEB-DL.4K.H265.AAC.2Audios-HOMEWEB 1.81GB >> 正文

汪汪队立大功大电影[中文字幕].PAW.Patrol.The.Movie.2021.WEB-DL.4K.H265.AAC.2Audios-HOMEWEB 1.81GB

2022年04月20日 22:17:06     电影发布:来源于网络     电影分类:动画电影     评论(0)    

汪汪队立大功大电影[中文字幕].PAW.Patrol.The.Movie.2021.WEB DL.4K.H265.AAC.2Audios HOMEWEB 1.81GB  动画电影  第1张

◎译 名 汪汪队立大功大电影 / 狗狗巡逻队 / 汪汪队立大功电影版(台)

◎片 名 Paw Patrol: The Movie

◎年 代 2021

◎产 地 美国 / 加拿大

◎类 别 喜剧 / 动画 / 冒险

◎语 言 英语

◎上映日期 2022-01-14(中国大陆) / 2021-08-20(美国)

◎IMDb链接 https://www.imdb.com/title/tt11832046/

◎豆瓣评分 7.2/10 (3645人评价)

◎豆瓣链接 https://movie.douban.com/subject/35045591/

◎片 长 86分钟

◎导 演 卡尔·布伦克尔 Cal Brunker (id:1337216)

◎编 剧 比利·弗罗利克 Billy Frolick (id:1303759)

卡尔·布伦克尔 Cal Brunker (id:1337216)

鲍勃·巴伦 Bob Barlen (id:1379167)

◎演 员 伊恩·阿米蒂奇 Iain Armitage (id:1369478)

马尔赛·马丁 Marsai Martin (id:1343623)

罗恩·帕尔多 Ron Pardo (id:1461034)

雅拉·沙希迪 Yara Shahidi (id:1330789)

金·卡戴珊 Kim Kardashian (id:1233965)

兰道尔·朴 Randall Park (id:1345622)

戴克斯·夏普德 Dax Shepard (id:1013777)

泰勒·派瑞 Tyler Perry (id:1049571)

吉米·坎摩尔 Jimmy Kimmel (id:1040719)

威尔·布鲁斯宾 Will Brisbin (id:1456619)

金斯利·马歇尔 Kingsley Marshall (id:1458107)

莫妮克·阿尔瓦雷斯 Monique Alvarez (id:1461035)

基根·赫德利 Keegan Hedley (id:1458099)

杰米拉·罗斯 Jamillah Ross (id:1461036)

卡勒姆·肖尼克 Callum Shoniker (id:1458113)

谢尔·西蒙斯 Shayle Simons (id:1458106)

莉莉·巴特拉姆 Lilly Bartlam (id:1458110)

金·罗伯特 Kim Roberts (id:1347745)

保罗·布朗斯坦 Paul Braunstein (id:1383398)

乔·平格 Joe Pingue (id:1337511)

乔希·罗伯特·汤普森 Josh Robert Thompson (id:1240353)

乔希·格雷厄姆 Josh Graham (id:1461037)

尼尔·克容 Neil Crone (id:1076749)

查理·加兰特 Charlie Gallant (id:1450559)

理查德·宾斯利 Richard Binsley (id:1374793)

雷欧·巴奈扎 Raoul Bhaneja (id:1019251)

莎拉·乔德利 Saara Chaudry (id:1385325)

Kevin Duhaney Kevin Duhaney (id:1083859)

詹妮弗·道奇 Jennifer Dodge (id:1456620)

罗内恩·哈拉里 Ronnen Harary (id:1456621)

亚当·贝德 Adam Beder (id:1456622)

彼得·施莱塞尔 Peter Schlessel (id:1456623)

◎简 介

汪汪队出发救援!邪恶的海丁那成为了冒险湾的市长,并且准备对这座城市进行大肆破坏。小男孩莱德和他英勇的汪汪队小狗们必须打起十二分精神,准备迎接全新的挑战。与此同时,小狗阿奇不得不面对他在冒险湾复杂的过去。好在这时团队迎来了新的盟友,聪明的腊肠犬贝贝。带着升级的武器和装备,汪汪队已经准备好随时为拯救冒险湾的居民们而战!

  1. ##### MediaInfo ######

  2. General

  3. Unique ID : 293527651788959716867243691256619469172 (0xDCD35E918FEB821AC3EB6F01AFD80974)

  4. Complete name : PAW Patrol The Movie 2021 WEB-DL 4K H265 AAC 2Audios-Dave.mkv

  5. Format : Matroska

  6. Format version : Version 4

  7. File size : 1.81 GiB

  8. Duration : 1 h 26 min

  9. Overall bit rate : 3 008 kb/s

  10. Encoded date : UTC 2022-04-19 16:30:03

  11. Writing application : mkvmerge v63.0.0 ('Everything') 64-bit

  12. Writing library : libebml v1.4.2 + libmatroska v1.6.4

  13. Video

  14. ID : 1

  15. Format : HEVC

  16. Format/Info : High Efficiency Video Coding

  17. Format profile : [email protected]@Main

  18. Codec ID : V_MPEGH/ISO/HEVC

  19. Duration : 1 h 26 min

  20. Bit rate : 2 754 kb/s

  21. Width : 3 840 pixels

  22. Height : 1 608 pixels

  23. Display aspect ratio : 2.40:1

  24. Frame rate mode : Constant

  25. Frame rate : 23.976 (23976/1000/53354) FPS

  26. Color space : YUV

  27. Chroma subsampling : 4:2:0

  28. Bit depth : 8 bits

  29. Bits/(Pixel*Frame) : 0.019

  30. Stream size : 1.66 GiB (92%)

  31. Default : Yes

  32. Forced : No

  33. Audio #1

  34. ID : 2

  35. Format : AAC LC

  36. Format/Info : Advanced Audio Codec Low Complexity

  37. Codec ID : A_AAC-2

  38. Duration : 1 h 26 min

  39. Bit rate : 125 kb/s

  40. Channel(s) : 2 channels

  41. Channel layout : L R

  42. Sampling rate : 48.0 kHz

  43. Frame rate : 46.875 FPS (1024 SPF)

  44. Compression mode : Lossy

  45. Delay relative to video : -42 ms

  46. Stream size : 77.2 MiB (4%)

  47. Title : 普通话

  48. Language : Chinese

  49. Default : Yes

  50. Forced : No

  51. Audio #2

  52. ID : 3

  53. Format : AAC LC

  54. Format/Info : Advanced Audio Codec Low Complexity

  55. Codec ID : A_AAC-2

  56. Duration : 1 h 26 min

  57. Bit rate : 125 kb/s

  58. Channel(s) : 2 channels

  59. Channel layout : L R

  60. Sampling rate : 48.0 kHz

  61. Frame rate : 46.875 FPS (1024 SPF)

  62. Compression mode : Lossy

  63. Delay relative to video : -42 ms

  64. Stream size : 77.2 MiB (4%)

  65. Title : 英语

  66. Language : English

  67. Default : No

  68. Forced : No


复制代码



文件下载


除非特别注明,本文『汪汪队立大功大电影[中文字幕].PAW.Patrol.The.Movie.2021.WEB-DL.4K.H265.AAC.2Audios-HOMEWEB 1.81GB』来源于互联网机器人自动抓取,非本站原创。 浮游电影网不对本文拥有版权,如有侵犯,请联系邮箱:fuyouu#yandex.com[#换成@]投诉。我们会在15个工作日内删除。 但烦请转载时请标明出处:“本文转载于『浮游电影网』,原文地址:https://www.fuyouu.com/21522.html

评论吧骚年!

发表你的见解   

昵称*

E-mail*(建议输入,以便收到博主回复的提示邮件)

验证码*

您可以使用eMule或eMule Mod(Windows)、aMule(Win、Linux、Mac)等软件下载eD2k链接。。
eMule收藏集(.emulecollection)文件是您选中的所有链接的列表文件。eMule可以直接下载它们。
按住SHIFT键选择可以选中多个选择框。
可用文件名和大小选择器来选择文件。
文件名选择器帮您根据文件名称或后缀来选择文件。不分大小写。
符号使用:
和:空格( )、+
不包含:-
或:|
转义:一对英文引号("");
匹配开头:^
匹配结尾:$
例如:
选中所有名称中包含有“eMule”或“0.49c”字眼,但不包含有“exe”字眼的:emule|0.49c -exe
选中所有名称的开头是“eMule”,结尾是“0.49c”的:^emule 0.49c$
选中所有名称中带有“eMule 0.49c”的(必须是“eMule 0.49c”,中间没有别的字符,不能是“eMule fake 0.49c”),需要转义:"emule 0.49c"
大小选择器帮您根据文件大小选择文件。