当前位置: 首页 >> 欧美电影 >> 粉红色潜艇[简繁英字幕].Operation.Petticoat.1959.BluRay.1080p.DTS-HD.MA.2.0.x265.10bit-ALT 10.61GB >> 正文

粉红色潜艇[简繁英字幕].Operation.Petticoat.1959.BluRay.1080p.DTS-HD.MA.2.0.x265.10bit-ALT 10.61GB

2022年04月20日 22:14:42     电影发布:来源于网络     电影分类:欧美电影     评论(0)    

粉红色潜艇[简繁英字幕].Operation.Petticoat.1959.BluRay.1080p.DTS HD.MA.2.0.x265.10bit ALT 10.61GB  欧美电影  第1张

◎译 名 粉红色潜艇

◎片 名 Operation Petticoat

◎年 代 1959

◎产 地 美国

◎类 别 喜剧 / 爱情 / 战争

◎语 言 英语

◎上映日期 1959-12-05

◎IMDb链接 https://www.imdb.com/title/tt0053143/

◎豆瓣评分 8.0/10 (364人评价)

◎豆瓣链接 https://movie.douban.com/subject/1303403/

◎片 长 124 分钟

◎导 演 布莱克·爱德华兹 Blake Edwards (id:1025287)

◎编 剧 斯坦利·沙皮罗 Stanley Shapiro (id:1010918)

莫里斯·里奇林 Maurice Richlin (id:1033730)

保罗·金 Paul King (id:1112852)

约瑟夫·斯通 Joseph Stone (id:1150066)

◎演 员 加里·格兰特 Cary Grant (id:1053563)

托尼·柯蒂斯 Tony Curtis (id:1019051)

琼·欧布伦 Joan O'Brien (id:1004973)

迪娜·梅瑞尔 Dina Merrill (id:1041219)

吉恩·埃文斯 Gene Evans (id:1012538)

Dick Sargent Dick Sargent (id:1139565)

维吉尼亚·格雷格 Virginia Gregg (id:1095574)

罗伯特·F·西蒙 Robert F. Simon (id:1155693)

罗伯特·吉斯特 Robert Gist (id:1028255)

加文·麦克劳德 Gavin MacLeod (id:1116153)

乔治·邓恩 George Dunn (id:1086878)

迪克·克罗基特 Dick Crockett (id:1032809)

马德琳·鲁 Madlyn Rhue (id:1146539)

马里昂·罗斯 Marion Ross (id:1055521)

Clarence Lung Clarence Lung (id:1125345)

弗兰基·达罗 Frankie Darro (id:1037022)

罗伯特·F.霍伊 Robert F. Hoy (id:1097022)

Nicky Blair Nicky Blair (id:1025521)

John W. Morley John W. Morley (id:1133475)

阿瑟·奥康纳 Arthur O'Connell (id:1002842)

哈尔·贝勒 Hal Baylor (id:1061956)

威廉·布莱特 William Bryant (id:1075394)

Dick Callinan Dick Callinan (id:1069634)

Malcolm Cassell Malcolm Cassell (id:1077396)

戴尔·卡明斯 Dale Cummings (id:1024482)

弗朗西斯·德塞尔斯 Francis De Sales (id:1081026)

Vince Deadrick Sr. Vince Deadrick Sr. (id:1360824)

Alan Dexter Alan Dexter (id:1083716)

柯克·道格拉斯 Kirk Douglas (id:1036372)

保罗·费斯 Paul Frees (id:1054237)

Preston Hanson Preston Hanson (id:1095352)

Harry Harvey Jr. Harry Harvey Jr. (id:1093233)

James Lanphier James Lanphier (id:1114494)

Nelson Leigh Nelson Leigh (id:1116272)

里昂·朗塔克 Leon Lontoc (id:1123994)

John James Russell John James Russell (id:1205044)

Nino Tempo Nino Tempo (id:1153128)

艾伦·斯科特 Alan Scott (id:1145521)

Robert Arthur Robert Arthur (id:1058532)

亨利·曼西尼 Henry Mancini (id:1002849)

大卫·罗丝 David Rose (id:1140037)

拉塞尔·哈伦 Russell Harlan (id:1051039)

泰德·J·肯特 Ted J. Kent (id:1029686)

亚历山大·高利思 Alexander Golitzen (id:1054308)

罗伯特·埃梅特·史密斯 Robert Emmet Smith (id:1026426)

奥利弗·埃默特 Oliver Emert (id:1088379)

罗素·A·盖斯曼 Russell A. Gausman (id:1093495)

比尔·托马斯 Bill Thomas (id:1151638)

拉里·热尔曼 Larry Germain (id:1098079)

百德·沃斯塔梅尔 Bud Westmore (id:1167200)

◎简 介

美国海军海之虎号潜艇即将退役,海军少将雪曼早早地来到潜艇上,翻看航海日志。看着自己当年的记录,昔日情景仍历历在目。将军思绪万千,浮想联翩……. 太平洋战争初期,美国海军在东南亚步步退守。海之虎号潜艇在港口几乎被日军飞机炸沉,雪曼艇长(卡里·格兰特饰)的任务是在两周之内完成平时需要两个月才能做完的事——把完全失去航行和战斗能力的海之虎号修好并撤退,但时局艰难,海之虎号连最起码的补给都很难弄到。海军上尉霍顿前来报到,此人无论穿着打扮或言谈举止,都象个十足的纨绔子弟,而且有关潜艇专业的知识他一概不懂,雪曼艇长觉得自己又多了一重麻烦。 霍顿上尉主动请缨之下,当上了海之虎号的军需官。谁知这正是最能发挥他长才的职位。他妥为运筹,使海之虎号的军需补给呈现一派欣欣向荣的景象,很快就拔锚起航了,而基地指挥官则忙着追查搬空基地仓库及他本人办公室的窃贼。 霍顿...

◎获奖情况 (共3项)

第32届奥斯卡金像奖 (1960)

最佳原创剧本(提名)

第17届金球奖 (1960)

电影类 最佳喜剧片(提名)

电影类 音乐/喜剧片最佳男主角(提名)

└──加里·格兰特 (id:1053563)

  1. ##### MediaInfo ######

  2. General

  3. Unique ID : 127845493067793221383310385363592395099 (0x602E25763CF90CD525B101884C23B95B)

  4. Complete name : Operation.Petticoat.1959.BluRay.1080p.DTS-HD.MA.2.0.x265.10bit-BeiTai.mkv

  5. Format : Matroska

  6. Format version : Version 4

  7. File size : 10.6 GiB

  8. Duration : 2 h 0 min

  9. Overall bit rate mode : Variable

  10. Overall bit rate : 12.6 Mb/s

  11. Encoded date : UTC 2022-04-19 13:40:00

  12. Writing application : mkvmerge v49.0.0 ('Sick Of Losing Soulmates') 64-bit

  13. Writing library : libebml v1.4.0 + libmatroska v1.6.1

  14. Video

  15. ID : 1

  16. Format : HEVC

  17. Format/Info : High Efficiency Video Coding

  18. Format profile : Main [email protected]@High

  19. Codec ID : V_MPEGH/ISO/HEVC

  20. Duration : 2 h 0 min

  21. Bit rate : 10.5 Mb/s

  22. Width : 1 920 pixels

  23. Height : 1 038 pixels

  24. Display aspect ratio : 1.85:1

  25. Frame rate mode : Constant

  26. Frame rate : 23.976 (24000/1001/53354) FPS

  27. Color space : YUV

  28. Chroma subsampling : 4:2:0

  29. Bit depth : 10 bits

  30. Bits/(Pixel*Frame) : 0.219

  31. Stream size : 8.81 GiB (83%)

  32. Title : HEVC, [email protected]@High, 24/1.001 fps @ 10480 kbps

  33. Writing library : x265 3.5+36-1f2c8da77:[Windows][GCC 11.2.0][64 bit] 10bit

  34. Encoding settings : cpuid=533541049071 / frame-threads=3 / numa-pools=8 / wpp / pmode / pme / no-psnr / no-ssim / log-level=2 / input-csp=1 / input-res=1920x1038 / interlace=0 / total-frames=173114 / level-idc=51 / high-tier=1 / uhd-bd=0 / ref=5 / no-allow-non-conformance / no-repeat-headers / annexb / no-aud / no-eob / no-eos / no-hrd / info / hash=0 / no-temporal-layers / open-gop / min-keyint=24 / keyint=240 / gop-lookahead=0 / bframes=6 / b-adapt=2 / b-pyramid / bframe-bias=0 / rc-lookahead=40 / lookahead-slices=0 / NTMzNTQ=uuDQuD2mJt9fsCf / scenecut=40 / no-hist-scenecut / radl=0 / no-splice / no-intra-refresh / ctu=32 / min-cu-size=8 / no-rect / no-amp / max-tu-size=32 / tu-inter-depth=3 / tu-intra-depth=3 / limit-tu=4 / rdoq-level=2 / dynamic-rd=0.00 / no-ssim-rd / signhide / no-tskip / nr-intra=0 / nr-inter=0 / no-constrained-intra / no-strong-intra-smoothing / max-merge=4 / limit-refs=1 / limit-modes / me=3 / subme=4 / merange=25 / temporal-mvp / no-frame-dup / no-hme / weightp / weightb / no-analyze-src-pics / deblock=-3:-3 / no-sao / no-sao-non-deblock / rd=6 / selective-sao=0 / no-early-skip / rskip / no-fast-intra / no-tskip-fast / no-cu-lossless / b-intra / no-splitrd-skip / rdpenalty=0 / psy-rd=2.00 / psy-rdoq=1.00 / no-rd-refine / no-lossless / cbqpoffs=0 / crqpoffs=0 / rc=crf / crf=21.5 / qcomp=0.65 / qpstep=4 / stats-write=0 / stats-read=0 / vbv-maxrate=80000 / vbv-bufsize=80000 / vbv-init=0.9 / min-vbv-fullness=50.0 / max-vbv-fullness=80.0 / crf-max=0.0 / crf-min=0.0 / ipratio=1.40 / pbratio=1.30 / aq-mode=2 / aq-strength=0.85 / cutree / zone-count=0 / no-strict-cbr / qg-size=32 / no-rc-grain / qpmax=69 / qpmin=0 / no-const-vbv / sar=1 / overscan=0 / videoformat=5 / range=0 / colorprim=1 / transfer=1 / colormatrix=1 / chromaloc=0 / display-window=0 / cll=0,0 / min-luma=0 / max-luma=1023 / log2-max-poc-lsb=8 / vui-timing-info / vui-hrd-info / slices=1 / no-opt-qp-pps / no-opt-ref-list-length-pps / no-multi-pass-opt-rps / scenecut-bias=0.05 / hist-threshold=0.03 / no-opt-cu-delta-qp / no-aq-motion / no-hdr10 / no-hdr10-opt / no-dhdr10-opt / no-idr-recovery-sei / analysis-reuse-level=0 / analysis-save-reuse-level=0 / analysis-load-reuse-level=0 / scale-factor=0 / refine-intra=0 / refine-inter=0 / refine-mv=1 / refine-ctu-distortion=0 / no-limit-sao / ctu-info=0 / no-lowpass-dct / refine-analysis-type=0 / copy-pic=1 / max-ausize-factor=1.0 / no-dynamic-refine / no-single-sei / no-hevc-aq / no-svt / no-field / qp-adaptation-range=1.00 / scenecut-aware-qp=0conformance-window-offsets / right=0 / bottom=0 / NTMzNTQ= / decoder-max-rate=0 / no-vbv-live-multi-pass

  35. Language : English

  36. Default : Yes

  37. Forced : No

  38. Color range : Limited

  39. Color primaries : BT.709

  40. Transfer characteristics : BT.709

  41. Matrix coefficients : BT.709

  42. Audio #1

  43. ID : 2

  44. Format : DTS XLL

  45. Format/Info : Digital Theater Systems

  46. Commercial name : DTS-HD Master Audio

  47. Codec ID : A_DTS

  48. Duration : 2 h 0 min

  49. Bit rate mode : Variable

  50. Bit rate : 1 790 kb/s

  51. Channel(s) : 2 channels

  52. Channel layout : L R

  53. Sampling rate : 48.0 kHz

  54. Frame rate : 93.750 FPS (512 SPF)

  55. Bit depth : 24 bits

  56. Compression mode : Lossless

  57. Stream size : 1.51 GiB (14%)

  58. Title : English DTS-HD Master Audio 2.0 @ 1791 kbps

  59. Language : English

  60. Default : Yes

  61. Forced : No

  62. Audio #2

  63. ID : 3

  64. Format : AC-3

  65. Format/Info : Audio Coding 3

  66. Commercial name : Dolby Digital

  67. Codec ID : A_AC3

  68. Duration : 2 h 0 min

  69. Bit rate mode : Constant

  70. Bit rate : 192 kb/s

  71. Channel(s) : 2 channels

  72. Channel layout : L R

  73. Sampling rate : 48.0 kHz

  74. Frame rate : 31.250 FPS (1536 SPF)

  75. Compression mode : Lossy

  76. Stream size : 165 MiB (2%)

  77. Title : English Dolby Digital Audio 2.0 @ 192 kbps Commentary

  78. Language : English

  79. Service kind : Complete Main

  80. Default : No

  81. Forced : No

  82. Text #1

  83. ID : 4

  84. Format : PGS

  85. Codec ID : S_HDMV/PGS

  86. Codec ID/Info : Picture based subtitle format used on BDs/HD-DVDs

  87. Duration : 1 h 59 min

  88. Bit rate : 68.7 kb/s

  89. Count of elements : 4996

  90. Stream size : 58.8 MiB (1%)

  91. Title : Eng/SUP

  92. Language : English

  93. Default : No

  94. Forced : No

  95. Text #2

  96. ID : 5

  97. Format : PGS

  98. Codec ID : S_HDMV/PGS

  99. Codec ID/Info : Picture based subtitle format used on BDs/HD-DVDs

  100. Duration : 1 h 59 min

  101. Bit rate : 44.8 kb/s

  102. Count of elements : 2846

  103. Stream size : 38.3 MiB (0%)

  104. Title : Chs/SUP 简体

  105. Language : Chinese

  106. Default : Yes

  107. Forced : No

  108. Text #3

  109. ID : 6

  110. Format : PGS

  111. Codec ID : S_HDMV/PGS

  112. Codec ID/Info : Picture based subtitle format used on BDs/HD-DVDs

  113. Duration : 1 h 59 min

  114. Bit rate : 46.5 kb/s

  115. Count of elements : 2846

  116. Stream size : 39.8 MiB (0%)

  117. Title : Cht/SUP 繁体

  118. Language : Chinese

  119. Default : No

  120. Forced : No


复制代码



文件下载


除非特别注明,本文『粉红色潜艇[简繁英字幕].Operation.Petticoat.1959.BluRay.1080p.DTS-HD.MA.2.0.x265.10bit-ALT 10.61GB』来源于互联网机器人自动抓取,非本站原创。 浮游电影网不对本文拥有版权,如有侵犯,请联系邮箱:fuyouu#yandex.com[#换成@]投诉。我们会在15个工作日内删除。 但烦请转载时请标明出处:“本文转载于『浮游电影网』,原文地址:https://www.fuyouu.com/21520.html

评论吧骚年!

发表你的见解   

昵称*

E-mail*(建议输入,以便收到博主回复的提示邮件)

验证码*

您可以使用eMule或eMule Mod(Windows)、aMule(Win、Linux、Mac)等软件下载eD2k链接。。
eMule收藏集(.emulecollection)文件是您选中的所有链接的列表文件。eMule可以直接下载它们。
按住SHIFT键选择可以选中多个选择框。
可用文件名和大小选择器来选择文件。
文件名选择器帮您根据文件名称或后缀来选择文件。不分大小写。
符号使用:
和:空格( )、+
不包含:-
或:|
转义:一对英文引号("");
匹配开头:^
匹配结尾:$
例如:
选中所有名称中包含有“eMule”或“0.49c”字眼,但不包含有“exe”字眼的:emule|0.49c -exe
选中所有名称的开头是“eMule”,结尾是“0.49c”的:^emule 0.49c$
选中所有名称中带有“eMule 0.49c”的(必须是“eMule 0.49c”,中间没有别的字符,不能是“eMule fake 0.49c”),需要转义:"emule 0.49c"
大小选择器帮您根据文件大小选择文件。