当前位置: 首页 >> 欧美电影 >> 绑架[简繁字幕].Kidnap.2017.BluRay.1080p.DTS-HD.MA5.1.x265.10bit-ALT 6.02GB >> 正文

绑架[简繁字幕].Kidnap.2017.BluRay.1080p.DTS-HD.MA5.1.x265.10bit-ALT 6.02GB

2022年04月20日 22:13:47     电影发布:来源于网络     电影分类:欧美电影     评论(0)    

绑架[简繁字幕].Kidnap.2017.BluRay.1080p.DTS HD.MA5.1.x265.10bit ALT 6.02GB  欧美电影  第1张

◎译 名 绑架 / 绑架大追捕(港) / 最强老母

◎片 名 Kidnap

◎年 代 2017

◎产 地 美国

◎类 别 动作 / 惊悚

◎语 言 英语

◎上映日期 2017-05-21(挪威) / 2017-08-04(美国)

◎IMDb链接 https://www.imdb.com/title/tt1458169/

◎豆瓣评分 6.1/10 (2600人评价)

◎豆瓣链接 https://movie.douban.com/subject/3808583/

◎片 长 94分钟

◎导 演 路易斯·普瑞托 Luis Prieto (id:1345618)

◎编 剧 内特·李 Knate Lee (id:1340147)

◎演 员 哈莉·贝瑞 Halle Berry (id:1054415)

塞奇·科雷亚 Sage Correa (id:1360781)

克里斯·麦金 Chris McGinn (id:1124076)

卢·坦普尔 Lew Temple (id:1149667)

杰森·乔治 Jason Winston George (id:1004796)

克里斯托弗·贝瑞 Christopher Berry (id:1341025)

阿荣·希弗 Arron Shiver (id:1009669)

柯蒂斯·贝德福特 Kurtis Bedford (id:1378695)

卡梅拉·莱利 Carmella Riley (id:1378696)

布莱斯·费舍尔 Brice Fisher (id:1378697)

珍妮·文特里斯 Jennie Ventriss (id:1156824)

蒂莫西·范农 Timothy Fannon (id:1378698)

安迪·瓦格纳 Andy Wagner (id:1378699)

梅莉尔·罗斯 Malea Rose (id:1239396)

库尔特·克劳斯 Kurt Krause (id:1386112)

丹娜·格瑞尔 Dana Gourrier (id:1338882)

罗伯特·沃克·布兰乔德 Robert Walker Branchaud (id:1360137)

乔恩·马拉德 Jon Mallard (id:1457568)

◎简 介

影片故事讲述哈莉·贝瑞饰演的母亲发现儿子失踪后,不顾一切地追击绑架了她儿子的绑匪,由此上演了一场追车和打斗好戏。

  1. ##### MediaInfo ######

  2. General

  3. Unique ID : 268404349413841948159386172786022184182 (0xC9ECCC20B3A6A84052399435256274F6)

  4. Complete name : Kidnap.2017.BluRay.1080p.DTS-HD.MA5.1.x265.10bit-BeiTai.mkv

  5. Format : Matroska

  6. Format version : Version 4

  7. File size : 6.02 GiB

  8. Duration : 1 h 34 min

  9. Overall bit rate mode : Variable

  10. Overall bit rate : 9 076 kb/s

  11. Encoded date : UTC 2022-04-20 03:07:22

  12. Writing application : mkvmerge v49.0.0 ('Sick Of Losing Soulmates') 64-bit

  13. Writing library : libebml v1.4.0 + libmatroska v1.6.1

  14. Video

  15. ID : 1

  16. Format : HEVC

  17. Format/Info : High Efficiency Video Coding

  18. Format profile : Main [email protected]@High

  19. Codec ID : V_MPEGH/ISO/HEVC

  20. Duration : 1 h 34 min

  21. Bit rate : 7 075 kb/s

  22. Width : 1 920 pixels

  23. Height : 800 pixels

  24. Display aspect ratio : 2.40:1

  25. Frame rate mode : Constant

  26. Frame rate : 23.976 (24000/1001/53354) FPS

  27. Color space : YUV

  28. Chroma subsampling : 4:2:0

  29. Bit depth : 10 bits

  30. Bits/(Pixel*Frame) : 0.192

  31. Stream size : 4.69 GiB (78%)

  32. Title : HEVC, [email protected]@High, 24/1.001 fps @ 7074 kbps

  33. Writing library : x265 3.5+36-1f2c8da77:[Windows][GCC 11.2.0][64 bit] 10bit

  34. Encoding settings : cpuid=533541111039 / frame-threads=4 / numa-pools=16 / wpp / pmode / pme / no-psnr / no-ssim / log-level=2 / input-csp=1 / input-res=1920x800 / interlace=0 / total-frames=136586 / level-idc=51 / high-tier=1 / uhd-bd=0 / ref=5 / no-allow-non-conformance / no-repeat-headers / annexb / no-aud / no-eob / no-eos / no-hrd / info / hash=0 / no-temporal-layers / open-gop / min-keyint=24 / keyint=240 / gop-lookahead=0 / bframes=6 / b-adapt=2 / b-pyramid / bframe-bias=0 / rc-lookahead=40 / lookahead-slices=0 / NTMzNTQ=uuDQuD2mJt9fsCf / scenecut=40 / no-hist-scenecut / radl=0 / no-splice / no-intra-refresh / ctu=32 / min-cu-size=8 / no-rect / no-amp / max-tu-size=32 / tu-inter-depth=3 / tu-intra-depth=3 / limit-tu=4 / rdoq-level=2 / dynamic-rd=0.00 / no-ssim-rd / signhide / no-tskip / nr-intra=0 / nr-inter=0 / no-constrained-intra / no-strong-intra-smoothing / max-merge=4 / limit-refs=1 / limit-modes / me=3 / subme=4 / merange=25 / temporal-mvp / no-frame-dup / no-hme / weightp / weightb / no-analyze-src-pics / deblock=-3:-3 / no-sao / no-sao-non-deblock / rd=6 / selective-sao=0 / no-early-skip / rskip / no-fast-intra / no-tskip-fast / no-cu-lossless / b-intra / no-splitrd-skip / rdpenalty=0 / psy-rd=2.00 / psy-rdoq=1.00 / no-rd-refine / no-lossless / cbqpoffs=0 / crqpoffs=0 / rc=crf / crf=17.0 / qcomp=0.65 / qpstep=4 / stats-write=0 / stats-read=0 / vbv-maxrate=80000 / vbv-bufsize=80000 / vbv-init=0.9 / min-vbv-fullness=50.0 / max-vbv-fullness=80.0 / crf-max=0.0 / crf-min=0.0 / ipratio=1.40 / pbratio=1.30 / aq-mode=2 / aq-strength=0.85 / cutree / zone-count=0 / no-strict-cbr / qg-size=32 / no-rc-grain / qpmax=69 / qpmin=0 / no-const-vbv / sar=1 / overscan=0 / videoformat=5 / range=0 / colorprim=1 / transfer=1 / colormatrix=1 / chromaloc=0 / display-window=0 / cll=0,0 / min-luma=0 / max-luma=1023 / log2-max-poc-lsb=8 / vui-timing-info / vui-hrd-info / slices=1 / no-opt-qp-pps / no-opt-ref-list-length-pps / no-multi-pass-opt-rps / scenecut-bias=0.05 / hist-threshold=0.03 / no-opt-cu-delta-qp / no-aq-motion / no-hdr10 / no-hdr10-opt / no-dhdr10-opt / no-idr-recovery-sei / analysis-reuse-level=0 / analysis-save-reuse-level=0 / analysis-load-reuse-level=0 / scale-factor=0 / refine-intra=0 / refine-inter=0 / refine-mv=1 / refine-ctu-distortion=0 / no-limit-sao / ctu-info=0 / no-lowpass-dct / refine-analysis-type=0 / copy-pic=1 / max-ausize-factor=1.0 / no-dynamic-refine / no-single-sei / no-hevc-aq / no-svt / no-field / qp-adaptation-range=1.00 / scenecut-aware-qp=0conformance-window-offsets / right=0 / bottom=0 / NTMzNTQ= / decoder-max-rate=0 / no-vbv-live-multi-pass

  35. Language : English

  36. Default : Yes

  37. Forced : No

  38. Color range : Limited

  39. Color primaries : BT.709

  40. Transfer characteristics : BT.709

  41. Matrix coefficients : BT.709

  42. Audio

  43. ID : 2

  44. Format : DTS XLL

  45. Format/Info : Digital Theater Systems

  46. Commercial name : DTS-HD Master Audio

  47. Codec ID : A_DTS

  48. Duration : 1 h 34 min

  49. Bit rate mode : Variable

  50. Bit rate : 1 976 kb/s

  51. Channel(s) : 6 channels

  52. Channel layout : C L R Ls Rs LFE

  53. Sampling rate : 48.0 kHz

  54. Frame rate : 93.750 FPS (512 SPF)

  55. Bit depth : 16 bits

  56. Compression mode : Lossless

  57. Stream size : 1.31 GiB (22%)

  58. Title : English DTS-HD Master Audio 5.1 @ 1976 kbps

  59. Language : English

  60. Default : Yes

  61. Forced : No

  62. Text #1

  63. ID : 3

  64. Format : PGS

  65. Codec ID : S_HDMV/PGS

  66. Codec ID/Info : Picture based subtitle format used on BDs/HD-DVDs

  67. Duration : 1 h 29 min

  68. Bit rate : 11.7 kb/s

  69. Count of elements : 1144

  70. Stream size : 7.52 MiB (0%)

  71. Title : Chs/SUP 简体

  72. Language : Chinese

  73. Default : Yes

  74. Forced : No

  75. Text #2

  76. ID : 4

  77. Format : PGS

  78. Codec ID : S_HDMV/PGS

  79. Codec ID/Info : Picture based subtitle format used on BDs/HD-DVDs

  80. Duration : 1 h 29 min

  81. Bit rate : 11.9 kb/s

  82. Count of elements : 1144

  83. Stream size : 7.65 MiB (0%)

  84. Title : Cht/SUP 繁体

  85. Language : Chinese

  86. Default : No

  87. Forced : No

  88. Menu

  89. 00:00:00.000 : en:第 01 章

  90. 00:10:05.980 : en:第 02 章

  91. 00:18:17.346 : en:第 03 章

  92. 00:31:20.003 : en:第 04 章

  93. 00:42:57.950 : en:第 05 章

  94. 00:56:26.341 : en:第 06 章

  95. 01:08:57.008 : en:第 07 章

  96. 01:24:34.069 : en:第 08 章


复制代码



文件下载


除非特别注明,本文『绑架[简繁字幕].Kidnap.2017.BluRay.1080p.DTS-HD.MA5.1.x265.10bit-ALT 6.02GB』来源于互联网机器人自动抓取,非本站原创。 浮游电影网不对本文拥有版权,如有侵犯,请联系邮箱:fuyouu#yandex.com[#换成@]投诉。我们会在15个工作日内删除。 但烦请转载时请标明出处:“本文转载于『浮游电影网』,原文地址:https://www.fuyouu.com/21519.html

评论吧骚年!

发表你的见解   

昵称*

E-mail*(建议输入,以便收到博主回复的提示邮件)

验证码*

您可以使用eMule或eMule Mod(Windows)、aMule(Win、Linux、Mac)等软件下载eD2k链接。。
eMule收藏集(.emulecollection)文件是您选中的所有链接的列表文件。eMule可以直接下载它们。
按住SHIFT键选择可以选中多个选择框。
可用文件名和大小选择器来选择文件。
文件名选择器帮您根据文件名称或后缀来选择文件。不分大小写。
符号使用:
和:空格( )、+
不包含:-
或:|
转义:一对英文引号("");
匹配开头:^
匹配结尾:$
例如:
选中所有名称中包含有“eMule”或“0.49c”字眼,但不包含有“exe”字眼的:emule|0.49c -exe
选中所有名称的开头是“eMule”,结尾是“0.49c”的:^emule 0.49c$
选中所有名称中带有“eMule 0.49c”的(必须是“eMule 0.49c”,中间没有别的字符,不能是“eMule fake 0.49c”),需要转义:"emule 0.49c"
大小选择器帮您根据文件大小选择文件。