当前位置: 首页 >> 海外电影 >> 绝代妖姬[简繁字幕].Farinelli.1994.BluRay.1080p.TrueHD5.1.x265.10bit-ALT 12.04GB >> 正文

绝代妖姬[简繁字幕].Farinelli.1994.BluRay.1080p.TrueHD5.1.x265.10bit-ALT 12.04GB

2022年04月20日 22:12:05     电影发布:来源于网络     电影分类:海外电影     评论(0)    

绝代妖姬[简繁字幕].Farinelli.1994.BluRay.1080p.TrueHD5.1.x265.10bit ALT 12.04GB  海外电影  第1张

◎译 名 绝代妖姬 / 绝代艳姬(台) / 法里内利 / 魅影歌声 / 绝世歌伶 / 法拉内利 / 法里乃利 / 绝代歌姬 / 魅影魔声 / 绝世阉伶 / Farinelli - Voce regina / Farinelli: Il castrato

◎片 名 Farinelli

◎年 代 1994

◎产 地 法国 / 意大利 / 比利时

◎类 别 剧情 / 音乐 / 传记

◎语 言 法语 / 意大利语

◎上映日期 1994-12-07(法国)

◎IMDb链接 https://www.imdb.com/title/tt0109771/

◎豆瓣评分 8.0/10 (9506人评价)

◎豆瓣链接 https://movie.douban.com/subject/1303034/

◎片 长 111 分钟

◎导 演 热拉尔·科尔比奥 Gérard Corbiau (id:1050868)

◎编 剧 热拉尔·科尔比奥 Gérard Corbiau (id:1050868)

安德丽·科尔比奥 Andrée Corbiau (id:1281254)

◎演 员 斯特法诺·迪奥尼斯 Stefano Dionisi (id:1028018)

恩里克·洛维索 Enrico Lo Verso (id:1014293)

艾尔莎·泽贝斯坦 Elsa Zylberstein (id:1027994)

杰罗恩·克拉比 Jeroen Krabbé (id:1036595)

卡罗利娜·塞利埃 Caroline Cellier (id:1078472)

Carlos Castel Carlos Castel (id:1170799)

Hubert Burczek Hubert Burczek (id:1076777)

皮耶尔·保罗·卡波尼 Pier Paolo Capponi (id:1069675)

玛丽安娜·巴斯莱 Marianne Basler (id:1063871)

Jo Betzing Jo Betzing (id:1061664)

奥梅罗·安东努蒂 Omero Antonutti (id:1056773)

谢妮亚·席伯格 Xenia Seeberg (id:1000286)

薇拉·贝尔蒙 Véra Belmont (id:1042295)

阿尔多·拉多 Aldo Lado (id:1037271)

瓦尔特·范登·恩德 Walther van den Ende (id:1012841)

若埃勒·阿什 Jo?lle Hache (id:1285753)

吉安尼·夸兰塔 Gianni Quaranta (id:1139108)

Anne de Laugardière Anne de Laugardière (id:1289508)

奥尔加·贝鲁蒂 Olga Berluti (id:1278469)

Luk Van Cleemput Luk Van Cleemput (id:1160416)

◎简 介

这部电影是由意大利、比利时、法国合拍的,曾获得金球奖最佳外语片,凯撒奖最佳服装设计、最佳音响以及奥斯卡最佳外语片提名。

古典音乐作曲家卡多(恩里克·洛维索 Enrico Lo Verso 饰)为了保全弟弟法瑞内利(斯特法诺·迪奥尼斯 Stefano Dionisi 饰)的声音不会因为成长而消失,不惜在他孩童时实施宫刑,从而让法瑞内利成为了伟大的歌唱家。兄弟两个人的命运就此相连,约定从此共有一切——音乐,荣誉,女人。法瑞内利的醉人的歌声及纯真的魅力迷倒了不少美女,卡多与弟弟分享一具肉体,并在感情和事业上处处控制着单纯的法瑞内利。终于有一天,了解真相的法瑞内利悲痛不已,无法原谅他的兄长对他的所作所为,从此两人决裂。在日食来临的时候,卡多割腕未遂,苏醒的他终于得到法瑞内利的原谅,于是,他在弟弟的女人爱丽丝肚子里留了个孩子作为对以前行为的补偿后悄然离去。

◎获奖情况 (共2项)

第67届奥斯卡金像奖 (1995)

最佳外语片(提名)

└──热拉尔·科尔比奥 (id:1050868)

第52届金球奖 (1995)

电影类 最佳外语片

  1. ##### MediaInfo ######

  2. General

  3. Unique ID : 161872207490110148080019138330067542661 (0x79C7740217A41B5554C092F7B7052285)

  4. Complete name : Farinelli.1994.BluRay.1080p.TrueHD5.1.x265.10bit-BeiTai.mkv

  5. Format : Matroska

  6. Format version : Version 4

  7. File size : 12.0 GiB

  8. Duration : 1 h 50 min

  9. Overall bit rate mode : Variable

  10. Overall bit rate : 15.6 Mb/s

  11. Encoded date : UTC 2022-04-19 13:27:39

  12. Writing application : mkvmerge v49.0.0 ('Sick Of Losing Soulmates') 64-bit

  13. Writing library : libebml v1.4.0 + libmatroska v1.6.1

  14. Video

  15. ID : 1

  16. Format : HEVC

  17. Format/Info : High Efficiency Video Coding

  18. Format profile : Main [email protected]@High

  19. Codec ID : V_MPEGH/ISO/HEVC

  20. Duration : 1 h 50 min

  21. Bit rate : 10.4 Mb/s

  22. Width : 1 920 pixels

  23. Height : 1 036 pixels

  24. Display aspect ratio : 1.85:1

  25. Frame rate mode : Constant

  26. Frame rate : 23.976 (24000/1001/53354) FPS

  27. Color space : YUV

  28. Chroma subsampling : 4:2:0

  29. Bit depth : 10 bits

  30. Bits/(Pixel*Frame) : 0.217

  31. Stream size : 8.01 GiB (67%)

  32. Title : HEVC, [email protected]@High, 24/1.001 fps @ 10352 kbps

  33. Writing library : x265 3.5+36-1f2c8da77:[Windows][GCC 11.2.0][64 bit] 10bit

  34. Encoding settings : cpuid=533541111039 / frame-threads=4 / numa-pools=16 / wpp / pmode / pme / no-psnr / no-ssim / log-level=2 / input-csp=1 / input-res=1920x1036 / interlace=0 / total-frames=159264 / level-idc=51 / high-tier=1 / uhd-bd=0 / ref=5 / no-allow-non-conformance / no-repeat-headers / annexb / no-aud / no-eob / no-eos / no-hrd / info / hash=0 / no-temporal-layers / open-gop / min-keyint=24 / keyint=240 / gop-lookahead=0 / bframes=6 / b-adapt=2 / b-pyramid / bframe-bias=0 / rc-lookahead=40 / lookahead-slices=0 / NTMzNTQ=uuDQuD2mJt9fsCf / scenecut=40 / no-hist-scenecut / radl=0 / no-splice / no-intra-refresh / ctu=32 / min-cu-size=8 / no-rect / no-amp / max-tu-size=32 / tu-inter-depth=3 / tu-intra-depth=3 / limit-tu=4 / rdoq-level=2 / dynamic-rd=0.00 / no-ssim-rd / signhide / no-tskip / nr-intra=0 / nr-inter=0 / no-constrained-intra / no-strong-intra-smoothing / max-merge=4 / limit-refs=1 / limit-modes / me=3 / subme=4 / merange=25 / temporal-mvp / no-frame-dup / no-hme / weightp / weightb / no-analyze-src-pics / deblock=-3:-3 / no-sao / no-sao-non-deblock / rd=6 / selective-sao=0 / no-early-skip / rskip / no-fast-intra / no-tskip-fast / no-cu-lossless / b-intra / no-splitrd-skip / rdpenalty=0 / psy-rd=2.00 / psy-rdoq=1.00 / no-rd-refine / no-lossless / cbqpoffs=0 / crqpoffs=0 / rc=crf / crf=18.5 / qcomp=0.65 / qpstep=4 / stats-write=0 / stats-read=0 / vbv-maxrate=80000 / vbv-bufsize=80000 / vbv-init=0.9 / min-vbv-fullness=50.0 / max-vbv-fullness=80.0 / crf-max=0.0 / crf-min=0.0 / ipratio=1.40 / pbratio=1.30 / aq-mode=2 / aq-strength=0.85 / cutree / zone-count=0 / no-strict-cbr / qg-size=32 / no-rc-grain / qpmax=69 / qpmin=0 / no-const-vbv / sar=1 / overscan=0 / videoformat=5 / range=0 / colorprim=1 / transfer=1 / colormatrix=1 / chromaloc=0 / display-window=0 / cll=0,0 / min-luma=0 / max-luma=1023 / log2-max-poc-lsb=8 / vui-timing-info / vui-hrd-info / slices=1 / no-opt-qp-pps / no-opt-ref-list-length-pps / no-multi-pass-opt-rps / scenecut-bias=0.05 / hist-threshold=0.03 / no-opt-cu-delta-qp / no-aq-motion / no-hdr10 / no-hdr10-opt / no-dhdr10-opt / no-idr-recovery-sei / analysis-reuse-level=0 / analysis-save-reuse-level=0 / analysis-load-reuse-level=0 / scale-factor=0 / refine-intra=0 / refine-inter=0 / refine-mv=1 / refine-ctu-distortion=0 / no-limit-sao / ctu-info=0 / no-lowpass-dct / refine-analysis-type=0 / copy-pic=1 / max-ausize-factor=1.0 / no-dynamic-refine / no-single-sei / no-hevc-aq / no-svt / no-field / qp-adaptation-range=1.00 / scenecut-aware-qp=0conformance-window-offsets / right=0 / bottom=0 / NTMzNTQ= / decoder-max-rate=0 / no-vbv-live-multi-pass

  35. Language : English

  36. Default : Yes

  37. Forced : No

  38. Color range : Limited

  39. Color primaries : BT.709

  40. Transfer characteristics : BT.709

  41. Matrix coefficients : BT.709

  42. Audio #1

  43. ID : 2

  44. Format : MLP FBA

  45. Format/Info : Meridian Lossless Packing FBA

  46. Commercial name : Dolby TrueHD

  47. Codec ID : A_TRUEHD

  48. Duration : 1 h 50 min

  49. Bit rate mode : Variable

  50. Bit rate : 4 653 kb/s

  51. Maximum bit rate : 6 570 kb/s

  52. Channel(s) : 6 channels

  53. Channel layout : L R C LFE Ls Rs

  54. Sampling rate : 96.0 kHz

  55. Frame rate : 1 200.000 FPS (80 SPF)

  56. Compression mode : Lossless

  57. Stream size : 3.60 GiB (30%)

  58. Title : French Dolby TrueHD 5.1 @ 4652 kbps

  59. Language : French

  60. Default : Yes

  61. Forced : No

  62. Audio #2

  63. ID : 3

  64. Format : AC-3

  65. Format/Info : Audio Coding 3

  66. Commercial name : Dolby Digital

  67. Codec ID : A_AC3

  68. Duration : 1 h 50 min

  69. Bit rate mode : Constant

  70. Bit rate : 448 kb/s

  71. Channel(s) : 6 channels

  72. Channel layout : L R C LFE Ls Rs

  73. Sampling rate : 48.0 kHz

  74. Frame rate : 31.250 FPS (1536 SPF)

  75. Compression mode : Lossy

  76. Stream size : 355 MiB (3%)

  77. Title : French Dolby Digital EX 5.1 @ 640 kbps

  78. Language : French

  79. Service kind : Complete Main

  80. Default : No

  81. Forced : No

  82. Text #1

  83. ID : 4

  84. Format : PGS

  85. Codec ID : S_HDMV/PGS

  86. Codec ID/Info : Picture based subtitle format used on BDs/HD-DVDs

  87. Duration : 1 h 46 min

  88. Bit rate : 21.6 kb/s

  89. Count of elements : 1468

  90. Stream size : 16.5 MiB (0%)

  91. Title : Chs/SUP 简英双语

  92. Language : Chinese

  93. Default : Yes

  94. Forced : No

  95. Text #2

  96. ID : 5

  97. Format : PGS

  98. Codec ID : S_HDMV/PGS

  99. Codec ID/Info : Picture based subtitle format used on BDs/HD-DVDs

  100. Duration : 1 h 46 min

  101. Bit rate : 22.2 kb/s

  102. Count of elements : 1468

  103. Stream size : 17.0 MiB (0%)

  104. Title : Cht/SUP 繁英双语

  105. Language : Chinese

  106. Default : No

  107. Forced : No

  108. Menu

  109. 00:00:00.000 : en:第 01 章

  110. 00:16:42.335 : en:第 02 章

  111. 00:28:50.729 : en:第 03 章

  112. 00:44:18.281 : en:第 04 章

  113. 00:58:00.310 : en:第 05 章

  114. 01:19:09.119 : en:第 06 章

  115. 01:20:30.367 : en:第 07 章

  116. 01:24:29.231 : en:第 08 章

  117. 01:27:36.585 : en:第 09 章

  118. 01:40:01.996 : en:第 10 章


复制代码



文件下载


除非特别注明,本文『绝代妖姬[简繁字幕].Farinelli.1994.BluRay.1080p.TrueHD5.1.x265.10bit-ALT 12.04GB』来源于互联网机器人自动抓取,非本站原创。 浮游电影网不对本文拥有版权,如有侵犯,请联系邮箱:fuyouu#yandex.com[#换成@]投诉。我们会在15个工作日内删除。 但烦请转载时请标明出处:“本文转载于『浮游电影网』,原文地址:https://www.fuyouu.com/21517.html

评论吧骚年!

发表你的见解   

昵称*

E-mail*(建议输入,以便收到博主回复的提示邮件)

验证码*

您可以使用eMule或eMule Mod(Windows)、aMule(Win、Linux、Mac)等软件下载eD2k链接。。
eMule收藏集(.emulecollection)文件是您选中的所有链接的列表文件。eMule可以直接下载它们。
按住SHIFT键选择可以选中多个选择框。
可用文件名和大小选择器来选择文件。
文件名选择器帮您根据文件名称或后缀来选择文件。不分大小写。
符号使用:
和:空格( )、+
不包含:-
或:|
转义:一对英文引号("");
匹配开头:^
匹配结尾:$
例如:
选中所有名称中包含有“eMule”或“0.49c”字眼,但不包含有“exe”字眼的:emule|0.49c -exe
选中所有名称的开头是“eMule”,结尾是“0.49c”的:^emule 0.49c$
选中所有名称中带有“eMule 0.49c”的(必须是“eMule 0.49c”,中间没有别的字符,不能是“eMule fake 0.49c”),需要转义:"emule 0.49c"
大小选择器帮您根据文件大小选择文件。