当前位置: 首页 >> 国产电影 >> 浮城谜事[国语配音/中文字幕].Mystery.2012.1080p.WEB-DL.H265.AAC-CTRLWEB 2.95GB >> 正文

浮城谜事[国语配音/中文字幕].Mystery.2012.1080p.WEB-DL.H265.AAC-CTRLWEB 2.95GB

2022年04月20日 22:08:30     电影发布:来源于网络     电影分类:国产电影     评论(0)    

浮城谜事[国语配音/中文字幕].Mystery.2012.1080p.WEB DL.H265.AAC CTRLWEB 2.95GB  国产电影  第1张

◎译 名 浮城谜事 / 谜 / Mystery

◎年 代 2012

◎产 地 中国大陆 / 法国

◎类 别 剧情 / 犯罪

◎语 言 汉语普通话

◎上映日期 2012-10-19(中国大陆) / 2013-05-03(中国台湾)

◎IMDb链接 https://www.imdb.com/title/tt2369127/

◎豆瓣评分 7.5/10 (142620人评价)

◎豆瓣链接 https://movie.douban.com/subject/10438426/

◎片 长 98分钟

◎导 演 娄烨 Ye Lou (id:1274263)

◎编 剧 梅峰 Feng Mei (id:1275132)

娄烨 Ye Lou (id:1274263)

于帆 Fan Yu (id:1331909)

◎演 员 郝蕾 Lei Hao (id:1042568)

秦昊 Hao Qin (id:1274463)

齐溪 Xi Qi (id:1318634)

朱亚文 Yawen Zhu (id:1312699)

祖峰 Feng Zu (id:1313650)

常方源 Fangyuan Chang (id:1318635)

瞿颖 Ying Qu (id:1011112)

吴伟 Wei Wu (id:1312977)

余龙钢 Longgang Yu (id:1333918)

李泠 Ling Li (id:1396476)

娄烨 Ye Lou (id:1274263)

耐安 An Nai (id:1319560)

裴曼·雅茨达尼安 Peyman Yazdanian (id:1325301)

尧十三 Shisan Yao (id:1404318)

约翰·约翰逊 Jóhann Jóhannsson (id:1331916)

曾剑 Jian Zeng (id:1314253)

西蒙·雅克特 Simon Jacquet (id:1325049)

彭少颖 Shaoying Peng (id:1332061)

梁鸣 Ming Liang (id:1416192)

富康 Kang Fu (id:1325306)

乔乐 Le Qiao (id:1400474)

陈纯昆 Chun-Kun Chen (id:1325047)

◎简 介

警察童明松(祖锋 饰)负责调查一起车祸,大学生蚊子(常方源 饰) 意外惨死,童明松决定同哥们儿——喜欢蚊子的修车工秦枫(朱亚文 饰)一起调查事件真相。两人追查真相时牵扯出了中产阶级夫妻乔永照(秦昊 饰)和陆洁(郝蕾 饰),陆洁因为女儿在幼儿园的玩伴宇航,认识了她的妈妈桑琪(齐溪 饰),却在与其交往的过程中发现了丈夫的外遇……随着蛛丝马迹的层层披露,事情越来越蹊跷,童、秦二人发现乔永照、陆洁、桑琪都藏有不可告人的秘密。

◎获奖情况 (共24项)

第49届台北金马影展 (2012)

金马奖 最佳剧情片(提名)

金马奖 最佳导演(提名)

└──娄烨 (id:1274263)

金马奖 最佳女主角(提名)

└──郝蕾 (id:1042568)

金马奖 最佳原著剧本(提名)

金马奖 最佳新演员

└──齐溪 (id:1318634)

金马奖 最佳原创配乐

金马奖 最佳剪辑(提名)

└──西蒙·雅克特 (id:1325049)

第7届亚洲电影大奖 (2013)

我最喜爱的男女主角 我最喜爱的女主角(提名)

└──郝蕾 (id:1042568)

最佳电影

最佳导演(提名)

└──娄烨 (id:1274263)

最佳女主角(提名)

└──郝蕾 (id:1042568)

最佳新演员

└──齐溪 (id:1318634)

最佳编剧

最佳原创音乐(提名)

第13届华语电影传媒大奖 (2013)

百家传媒年度致敬电影人

└──娄烨 (id:1274263)

百家传媒年度致敬电影(提名)

最佳女主角(提名)

└──郝蕾 (id:1042568)

最佳女配角(提名)

└──齐溪 (id:1318634)

最佳新演员

└──齐溪 (id:1318634)

第3届豆瓣电影鑫像奖 (2013)

鑫豆单元 最佳影片(华语)(提名)

鑫豆单元 最佳导演(华语)(提名)

└──娄烨 (id:1274263)

鑫豆单元 最佳女演员(华语)(提名)

└──郝蕾 (id:1042568)

鑫豆单元 最佳配乐(提名)

鑫豆单元 最佳歌曲(提名)

  1. ##### MediaInfo ######

  2. General

  3. Complete name : Mystery.2012.1080p.WEB-DL.H265.AAC-CHDWEB.mp4

  4. Format : MPEG-4

  5. Format profile : Base Media

  6. Codec ID : isom (isom/iso2/mp41)

  7. File size : 2.95 GiB

  8. Duration : 1 h 33 min

  9. Overall bit rate : 4 515 kb/s

  10. Recorded date : 2022-04-19T10:20:32.4252544+08:00

  11. Writing application : Lavf59.16.100

  12. Video

  13. ID : 1

  14. Format : HEVC

  15. Format/Info : High Efficiency Video Coding

  16. Format profile : [email protected]@Main

  17. Codec ID : hev1

  18. Codec ID/Info : High Efficiency Video Coding

  19. Duration : 1 h 33 min

  20. Bit rate : 4 384 kb/s

  21. Width : 1 920 pixels

  22. Height : 1 080 pixels

  23. Display aspect ratio : 16:9

  24. Frame rate mode : Constant

  25. Frame rate : 24.000 FPS

  26. Color space : YUV

  27. Chroma subsampling : 4:2:0

  28. Bit depth : 8 bits

  29. Bits/(Pixel*Frame) : 0.088

  30. Stream size : 2.87 GiB (97%)

  31. Codec configuration box : hvcC

  32. Audio

  33. ID : 2

  34. Format : AAC LC

  35. Format/Info : Advanced Audio Codec Low Complexity

  36. Codec ID : mp4a-40-2

  37. Duration : 1 h 33 min

  38. Bit rate mode : Constant

  39. Bit rate : 125 kb/s

  40. Channel(s) : 2 channels

  41. Channel layout : L R

  42. Sampling rate : 44.1 kHz

  43. Frame rate : 43.066 FPS (1024 SPF)

  44. Compression mode : Lossy

  45. Stream size : 83.2 MiB (3%)

  46. Default : Yes

  47. Alternate group : 1


复制代码



文件下载


除非特别注明,本文『浮城谜事[国语配音/中文字幕].Mystery.2012.1080p.WEB-DL.H265.AAC-CTRLWEB 2.95GB』来源于互联网机器人自动抓取,非本站原创。 浮游电影网不对本文拥有版权,如有侵犯,请联系邮箱:fuyouu#yandex.com[#换成@]投诉。我们会在15个工作日内删除。 但烦请转载时请标明出处:“本文转载于『浮游电影网』,原文地址:https://www.fuyouu.com/21514.html

评论吧骚年!

发表你的见解   

昵称*

E-mail*(建议输入,以便收到博主回复的提示邮件)

验证码*

您可以使用eMule或eMule Mod(Windows)、aMule(Win、Linux、Mac)等软件下载eD2k链接。。
eMule收藏集(.emulecollection)文件是您选中的所有链接的列表文件。eMule可以直接下载它们。
按住SHIFT键选择可以选中多个选择框。
可用文件名和大小选择器来选择文件。
文件名选择器帮您根据文件名称或后缀来选择文件。不分大小写。
符号使用:
和:空格( )、+
不包含:-
或:|
转义:一对英文引号("");
匹配开头:^
匹配结尾:$
例如:
选中所有名称中包含有“eMule”或“0.49c”字眼,但不包含有“exe”字眼的:emule|0.49c -exe
选中所有名称的开头是“eMule”,结尾是“0.49c”的:^emule 0.49c$
选中所有名称中带有“eMule 0.49c”的(必须是“eMule 0.49c”,中间没有别的字符,不能是“eMule fake 0.49c”),需要转义:"emule 0.49c"
大小选择器帮您根据文件大小选择文件。