当前位置: 首页 >> 国产电影 >> 非狐外传[国语配音/中文字幕].The.Extreme.Fox.2014.2160p.WEB-DL.H265.AAC-CTRLWEB 6.80GB >> 正文

非狐外传[国语配音/中文字幕].The.Extreme.Fox.2014.2160p.WEB-DL.H265.AAC-CTRLWEB 6.80GB

2022年04月20日 22:04:19     电影发布:来源于网络     电影分类:国产电影     评论(0)    

非狐外传[国语配音/中文字幕].The.Extreme.Fox.2014.2160p.WEB DL.H265.AAC CTRLWEB 6.80GB  国产电影  第1张

◎译 名 非狐外传 / 聊斋·非狐外传 / The Extreme Fox

◎年 代 2014

◎产 地 中国大陆 / 中国香港

◎类 别 爱情 / 惊悚 / 奇幻 / 古装

◎语 言 汉语普通话 / 粤语

◎上映日期 2014-03-14(中国大陆)

◎IMDb链接 https://www.imdb.com/title/tt7494060/

◎豆瓣评分 3.3/10 (9582人评价)

◎豆瓣链接 https://movie.douban.com/subject/25728734/

◎片 长 90分钟

◎导 演 钱升玮 Wellson Chin (id:1015143)

◎编 剧 唐文康 Stanley Tong (id:1335934)

蒲松龄 Songling Pu (id:1275998)

◎演 员 周秀娜 Chrissie Chaw (id:1313563)

方力申 Lik-Sun Fong (id:1171687)

林雪 Suet Lam (id:1274279)

谈莉娜 Renata Tan (id:1316683)

刘峻纬 Awayne Liu (id:1370237)

黄俊淇 Jun-qi Huang (id:1314835)

张建波 Jianbo Zhang (id:1335938)

蔡紫芬 Zifen Tsai (id:1335939)

杨泽湖 Zehu Yang (id:1335940)

蒙伟明 Weiming Meng (id:1335941)

郝在冬 Zaidong Hao (id:1335942)

何美钿 Mei-tian He (id:1241838)

贾康熙 Kangxi Jia (id:1333924)

阴海龙 Hailong Yin (id:1335943)

范福林 Fulin Fan (id:1335944)

徐伟栋 Edward Chui (id:1336685)

杨安琪 Honey Yang (id:1356301)

明婧 Jing Ming (id:1355720)

唐文康 Stanley Tong (id:1335934)

(id:1316605)

伍乐城 Ronald Ng (id:1293116)

宋本中 Boon-Chung Sung (id:1322129)

◎简 介

故事发生在遥远的古代,那个世界里,人妖混居,世间永无太平。王生(方力申 饰)是一介平凡书生,在乱世之中,个性胆小懦弱的他只求能够安心读书,平安过活。一天,一位名叫仙儿(周秀娜 饰)的神秘女子不请自来,突然出现在了王生的面前,王生虽然不知仙儿究竟是何方神圣,但依旧被她身上所散发出来的媚气所深深吸引。

自仙儿出现之后,城中屡屡发生离奇的杀人案件,被害者均因为心脏被掏出而死,没有人知道这些失踪的心脏到底去了哪里。少女小翠(谈莉娜 饰)暗恋着王生,看到他被仙儿迷得神魂颠倒,小翠的心中很不是滋味。一次偶然中,小翠窥见了仙儿用妖法迷惑王生的秘密,心急如焚的她决定靠自己的力量揭开仙儿的“画皮”。

  1. ##### MediaInfo ######

  2. General

  3. Complete name : The.Extreme.Fox.2014.2160p.WEB-DL.H265.AAC-CHDWEB.mp4

  4. Format : MPEG-4

  5. Format profile : Base Media

  6. Codec ID : isom (isom/iso2/mp41)

  7. File size : 6.80 GiB

  8. Duration : 1 h 27 min

  9. Overall bit rate : 11.1 Mb/s

  10. Recorded date : 2022-04-16T17:50:42.3942972+08:00

  11. Writing application : Lavf59.16.100

  12. Video

  13. ID : 1

  14. Format : HEVC

  15. Format/Info : High Efficiency Video Coding

  16. Format profile : [email protected]@Main

  17. Codec ID : hev1

  18. Codec ID/Info : High Efficiency Video Coding

  19. Duration : 1 h 27 min

  20. Bit rate : 10.9 Mb/s

  21. Width : 3 840 pixels

  22. Height : 1 648 pixels

  23. Display aspect ratio : 2.35:1

  24. Frame rate mode : Constant

  25. Frame rate : 25.000 FPS

  26. Color space : YUV

  27. Chroma subsampling : 4:2:0

  28. Bit depth : 8 bits

  29. Bits/(Pixel*Frame) : 0.069

  30. Stream size : 6.67 GiB (98%)

  31. Codec configuration box : hvcC

  32. Audio

  33. ID : 2

  34. Format : AAC LC

  35. Format/Info : Advanced Audio Codec Low Complexity

  36. Codec ID : mp4a-40-2

  37. Duration : 1 h 27 min

  38. Bit rate mode : Constant

  39. Bit rate : 192 kb/s

  40. Channel(s) : 2 channels

  41. Channel layout : L R

  42. Sampling rate : 44.1 kHz

  43. Frame rate : 43.066 FPS (1024 SPF)

  44. Compression mode : Lossy

  45. Stream size : 119 MiB (2%)

  46. Default : Yes

  47. Alternate group : 1


复制代码


Ps:这海报很有容



文件下载


除非特别注明,本文『非狐外传[国语配音/中文字幕].The.Extreme.Fox.2014.2160p.WEB-DL.H265.AAC-CTRLWEB 6.80GB』来源于互联网机器人自动抓取,非本站原创。 浮游电影网不对本文拥有版权,如有侵犯,请联系邮箱:fuyouu#yandex.com[#换成@]投诉。我们会在15个工作日内删除。 但烦请转载时请标明出处:“本文转载于『浮游电影网』,原文地址:https://www.fuyouu.com/21510.html

评论吧骚年!

发表你的见解   

昵称*

E-mail*(建议输入,以便收到博主回复的提示邮件)

验证码*

您可以使用eMule或eMule Mod(Windows)、aMule(Win、Linux、Mac)等软件下载eD2k链接。。
eMule收藏集(.emulecollection)文件是您选中的所有链接的列表文件。eMule可以直接下载它们。
按住SHIFT键选择可以选中多个选择框。
可用文件名和大小选择器来选择文件。
文件名选择器帮您根据文件名称或后缀来选择文件。不分大小写。
符号使用:
和:空格( )、+
不包含:-
或:|
转义:一对英文引号("");
匹配开头:^
匹配结尾:$
例如:
选中所有名称中包含有“eMule”或“0.49c”字眼,但不包含有“exe”字眼的:emule|0.49c -exe
选中所有名称的开头是“eMule”,结尾是“0.49c”的:^emule 0.49c$
选中所有名称中带有“eMule 0.49c”的(必须是“eMule 0.49c”,中间没有别的字符,不能是“eMule fake 0.49c”),需要转义:"emule 0.49c"
大小选择器帮您根据文件大小选择文件。