当前位置: 首页 >> 国产电影 >> 陈情令之生魂[国语配音/中文字幕].The.Living.Dead.2019.2160p.WEB-DL.H265.AAC-CTRLWEB 9.97GB >> 正文

陈情令之生魂[国语配音/中文字幕].The.Living.Dead.2019.2160p.WEB-DL.H265.AAC-CTRLWEB 9.97GB

2022年04月20日 22:03:11     电影发布:来源于网络     电影分类:国产电影     评论(0)    

陈情令之生魂[国语配音/中文字幕].The.Living.Dead.2019.2160p.WEB DL.H265.AAC CTRLWEB 9.97GB  国产电影  第1张

◎译 名 陈情令之生魂 / 陈情令番外电影

◎年 代 2019

◎产 地 中国大陆

◎类 别 奇幻 / 古装

◎语 言 汉语普通话

◎上映日期 2019-11-07(中国大陆)

◎IMDb链接 https://www.imdb.com/title/tt11274256/

◎豆瓣评分 4.7/10 (45669人评价)

◎豆瓣链接 https://movie.douban.com/subject/34786971/

◎片 长 84分钟

◎导 演 裘仲维 Zhongwei Qiu (id:1324056)

◎编 剧 吕萍 Ping Lü (id:1434984)

◎演 员 于斌 Bin Yu (id:1386347)

郑繁星 Fanxing Zheng (id:1404205)

王一菲 Faye Wang (id:1377326)

高寒 Han Gao (id:1363017)

何龙龙 Longlong He (id:1418483)

秦明 Ming Qin (id:1434987)

李航 Hang Li (id:1417216)

张熙唯 Xiwei Zhang (id:1424268)

张立秋 Liqiu Zhang (id:1366750)

李佳勋 Jiaxun Li (id:1400054)

路文博 Wenbo Lu (id:1450431)

王德华 Dehua Wang (id:1434988)

顾宝丰 Baofeng Gu (id:1434989)

杨朝伟 Chaowei Yang (id:1434990)

李萌 Li Meng (id:1434985)

杨夏 Xia Yang (id:1418927)

秦明 Ming Qin (id:1434987)

◎简 介

靠近岐山,有一座曾被称作“小不夜天城”的扶风城。很久以前,此城花灯闪耀,夜如白昼。然而现在却被黑暗笼罩,流传着“点灯杀人”的传说。主人公温宁来到扶风城后,一入城,便发现了很多反常之处,整个城里都是老弱病残,一副萧条破败之景。黑夜来临,温宁刻意点灯,引来鬼影。正要将他擒获之时,一道蓝色剑光袭来,那黑影借机逃离。温宁抬眼一看,一道熟悉的身影从门外飞驰而入,正是他的旧相识,蓝氏子弟蓝思追。随后,温宁与蓝思追一起携手,经过不懈努力,二人最终解开谜团,擒住了幕后黑手,还百姓一个太平世间。

  1. ##### MediaInfo ######

  2. General

  3. Complete name : The.Living.Dead.2019.2160p.WEB-DL.H265.AAC-CHDWEB.mp4

  4. Format : MPEG-4

  5. Format profile : Base Media

  6. Codec ID : isom (isom/iso2/mp41)

  7. File size : 9.97 GiB

  8. Duration : 1 h 23 min

  9. Overall bit rate : 17.0 Mb/s

  10. Recorded date : 2022-04-16T17:53:57.9703488+08:00

  11. Writing application : Lavf59.16.100

  12. Video

  13. ID : 1

  14. Format : HEVC

  15. Format/Info : High Efficiency Video Coding

  16. Format profile : [email protected]@High

  17. Codec ID : hev1

  18. Codec ID/Info : High Efficiency Video Coding

  19. Duration : 1 h 23 min

  20. Bit rate : 16.9 Mb/s

  21. Width : 3 840 pixels

  22. Height : 1 608 pixels

  23. Display aspect ratio : 2.40:1

  24. Frame rate mode : Constant

  25. Frame rate : 25.000 FPS

  26. Color space : YUV

  27. Chroma subsampling : 4:2:0

  28. Bit depth : 8 bits

  29. Bits/(Pixel*Frame) : 0.109

  30. Stream size : 9.89 GiB (99%)

  31. Codec configuration box : hvcC

  32. Audio

  33. ID : 2

  34. Format : AAC LC

  35. Format/Info : Advanced Audio Codec Low Complexity

  36. Codec ID : mp4a-40-2

  37. Duration : 1 h 23 min

  38. Bit rate mode : Constant

  39. Bit rate : 125 kb/s

  40. Channel(s) : 2 channels

  41. Channel layout : L R

  42. Sampling rate : 44.1 kHz

  43. Frame rate : 43.066 FPS (1024 SPF)

  44. Compression mode : Lossy

  45. Stream size : 74.9 MiB (1%)

  46. Default : Yes

  47. Alternate group : 1


复制代码



文件下载


除非特别注明,本文『陈情令之生魂[国语配音/中文字幕].The.Living.Dead.2019.2160p.WEB-DL.H265.AAC-CTRLWEB 9.97GB』来源于互联网机器人自动抓取,非本站原创。 浮游电影网不对本文拥有版权,如有侵犯,请联系邮箱:fuyouu#yandex.com[#换成@]投诉。我们会在15个工作日内删除。 但烦请转载时请标明出处:“本文转载于『浮游电影网』,原文地址:https://www.fuyouu.com/21509.html

评论吧骚年!

发表你的见解   

昵称*

E-mail*(建议输入,以便收到博主回复的提示邮件)

验证码*

您可以使用eMule或eMule Mod(Windows)、aMule(Win、Linux、Mac)等软件下载eD2k链接。。
eMule收藏集(.emulecollection)文件是您选中的所有链接的列表文件。eMule可以直接下载它们。
按住SHIFT键选择可以选中多个选择框。
可用文件名和大小选择器来选择文件。
文件名选择器帮您根据文件名称或后缀来选择文件。不分大小写。
符号使用:
和:空格( )、+
不包含:-
或:|
转义:一对英文引号("");
匹配开头:^
匹配结尾:$
例如:
选中所有名称中包含有“eMule”或“0.49c”字眼,但不包含有“exe”字眼的:emule|0.49c -exe
选中所有名称的开头是“eMule”,结尾是“0.49c”的:^emule 0.49c$
选中所有名称中带有“eMule 0.49c”的(必须是“eMule 0.49c”,中间没有别的字符,不能是“eMule fake 0.49c”),需要转义:"emule 0.49c"
大小选择器帮您根据文件大小选择文件。