当前位置: 首页 >> 国产电影 >> 真·三国无双[国语配音/中文字幕].Dynasty.Warriors.2021.1080p.WEB-DL.H265.AAC-CTRLWEB 3.18GB >> 正文

真·三国无双[国语配音/中文字幕].Dynasty.Warriors.2021.1080p.WEB-DL.H265.AAC-CTRLWEB 3.18GB

2022年04月20日 22:02:15     电影发布:来源于网络     电影分类:国产电影     评论(0)    

真·三国无双[国语配音/中文字幕].Dynasty.Warriors.2021.1080p.WEB DL.H265.AAC CTRLWEB 3.18GB  国产电影  第1张

◎译 名 真·三国无双 / 真三国无双电影版 / 三国无双 / Dynasty Warriors

◎年 代 2021

◎产 地 中国大陆 / 中国香港

◎类 别 动作 / 奇幻 / 古装

◎语 言 汉语普通话 / 粤语

◎上映日期 2021-05-01(中国大陆) / 2021-04-29(中国香港)

◎IMDb链接 https://www.imdb.com/title/tt7587604/

◎豆瓣评分 3.9/10 (39241人评价)

◎豆瓣链接 https://movie.douban.com/subject/26747869/

◎片 长 117分钟

◎导 演 周显扬 Roy Chow Hin-Yeung (id:1316512)

◎编 剧 杜致朗 Chi-long To (id:1275226)

◎演 员 古天乐 Louis Koo (id:1027577)

王凯 Kai Wang (id:1314544)

杨祐宁 Yo Yang (id:1051157)

韩庚 Geng Han (id:1275667)

古力娜扎 Coulee Nazha (id:1315729)

刘嘉玲 Carina Lau (id:1036905)

吕良伟 Ray Lui (id:1037706)

林雪 Suet Lam (id:1274279)

姜皓文 Philip Keung Ho-Man (id:1317884)

张建声 Justin Cheung (id:1323927)

张兆辉 Siu-Fai Cheung (id:1005843)

罗家英 Kar-Ying Law (id:1108968)

王梓轩 Jonathan Wong Chee-hynn (id:1337843)

法志远 Zhiyuan Fa (id:1403617)

宁小花 Xiaohua Ning (id:1359076)

秦沛 Paul Chun (id:1048476)

杨紫彤 Zitong Yang (id:1316206)

陈之辉 Zhihui Chen (id:1317555)

王志华 Zhihua Wang (id:1321487)

晋松 Song Jin (id:1315699)

袁文康 Wenkang Yuan (id:1274820)

李凯贤 Brian Lee (id:1374560)

张博豪 Bohao Zhang (id:1400082)

张艺骞 Yiqian Zhang (id:1352968)

宋撼寰 Hanhuan Song (id:1359883)

鄂靖文 Jingwen E (id:1362292)

阳光 Guang Yang (id:1364220)

周显扬 Roy Chow Hin-Yeung (id:1316512)

杜致朗 Chi-long To (id:1275226)

周显扬 Roy Chow Hin-Yeung (id:1316512)

胡庆刚 David Hu (id:1423101)

于洋 Yang Yu (id:1415380)

杨丽 (id:1415400)

波多野裕介 Yusuke Hatano (id:1362901)

黄慧仪 Wai-Yi Wong (id:1453040)

Monica Mu Monica Mu (id:1453041)

John Allan John Allan (id:1453039)

◎简 介

电影根据同名游戏改编,讲述了动荡的东汉末年,汉室摇摇欲坠,董卓入京霸占朝野,引起天下动荡,身怀绝世武艺的曹操、吕布、刘备、关羽、张飞等各路英雄豪杰纷纷崛起,一场群雄逐鹿的大混战正式拉开序幕。在乱世中,到底谁才是真正的无双英雄……

◎获奖情况 (共1项)

第40届香港电影金像奖 (2022)

最佳服装造型设计(提名)

└──吴宝玲 (id:1293135)

  1. ##### MediaInfo ######

  2. General

  3. Complete name : Dynasty.Warriors.2021.1080p.WEB-DL.H265.AAC-CHDWEB.mp4

  4. Format : MPEG-4

  5. Format profile : Base Media

  6. Codec ID : isom (isom/iso2/mp41)

  7. File size : 3.18 GiB

  8. Duration : 1 h 58 min

  9. Overall bit rate mode : Variable

  10. Overall bit rate : 3 857 kb/s

  11. Recorded date : 2022-04-19T10:17:16.5083279+08:00

  12. Writing application : Lavf59.16.100

  13. Video

  14. ID : 1

  15. Format : HEVC

  16. Format/Info : High Efficiency Video Coding

  17. Format profile : [email protected]@Main

  18. Codec ID : hev1

  19. Codec ID/Info : High Efficiency Video Coding

  20. Duration : 1 h 58 min

  21. Bit rate : 3 661 kb/s

  22. Width : 1 920 pixels

  23. Height : 808 pixels

  24. Display aspect ratio : 2.40:1

  25. Frame rate mode : Constant

  26. Frame rate : 24.000 FPS

  27. Color space : YUV

  28. Chroma subsampling : 4:2:0

  29. Bit depth : 8 bits

  30. Bits/(Pixel*Frame) : 0.098

  31. Stream size : 3.02 GiB (95%)

  32. Codec configuration box : hvcC

  33. Audio

  34. ID : 2

  35. Format : AAC LC

  36. Format/Info : Advanced Audio Codec Low Complexity

  37. Codec ID : mp4a-40-2

  38. Duration : 1 h 58 min

  39. Bit rate mode : Variable

  40. Bit rate : 192 kb/s

  41. Maximum bit rate : 197 kb/s / 197 kb/s

  42. Channel(s) : 2 channels

  43. Channel layout : L R

  44. Sampling rate : 44.1 kHz

  45. Frame rate : 43.066 FPS (1024 SPF)

  46. Compression mode : Lossy

  47. Stream size : 160 MiB (5%)

  48. Default : Yes

  49. Alternate group : 1


复制代码



文件下载


除非特别注明,本文『真·三国无双[国语配音/中文字幕].Dynasty.Warriors.2021.1080p.WEB-DL.H265.AAC-CTRLWEB 3.18GB』来源于互联网机器人自动抓取,非本站原创。 浮游电影网不对本文拥有版权,如有侵犯,请联系邮箱:fuyouu#yandex.com[#换成@]投诉。我们会在15个工作日内删除。 但烦请转载时请标明出处:“本文转载于『浮游电影网』,原文地址:https://www.fuyouu.com/21508.html

评论吧骚年!

发表你的见解   

昵称*

E-mail*(建议输入,以便收到博主回复的提示邮件)

验证码*

您可以使用eMule或eMule Mod(Windows)、aMule(Win、Linux、Mac)等软件下载eD2k链接。。
eMule收藏集(.emulecollection)文件是您选中的所有链接的列表文件。eMule可以直接下载它们。
按住SHIFT键选择可以选中多个选择框。
可用文件名和大小选择器来选择文件。
文件名选择器帮您根据文件名称或后缀来选择文件。不分大小写。
符号使用:
和:空格( )、+
不包含:-
或:|
转义:一对英文引号("");
匹配开头:^
匹配结尾:$
例如:
选中所有名称中包含有“eMule”或“0.49c”字眼,但不包含有“exe”字眼的:emule|0.49c -exe
选中所有名称的开头是“eMule”,结尾是“0.49c”的:^emule 0.49c$
选中所有名称中带有“eMule 0.49c”的(必须是“eMule 0.49c”,中间没有别的字符,不能是“eMule fake 0.49c”),需要转义:"emule 0.49c"
大小选择器帮您根据文件大小选择文件。