当前位置: 首页 >> 欧美电影 >> 异形大战铁血战士2[中文字幕].Aliens.vs.Predator.Requiem.2007.UNRATED.1080p.BluRay.REMUX.AVC.DTS-HD.MA.5.1-FGT 22. >> 正文

异形大战铁血战士2[中文字幕].Aliens.vs.Predator.Requiem.2007.UNRATED.1080p.BluRay.REMUX.AVC.DTS-HD.MA.5.1-FGT 22.

2022年04月20日 12:06:06     电影发布:来源于网络     电影分类:欧美电影     评论(0)    

异形大战铁血战士2[中文字幕].Aliens.vs.Predator.Requiem.2007.UNRATED.1080p.BluRay.REMUX.AVC.DTS HD.MA.5.1 FGT 22.  欧美电影  第1张

◎译 名 异形大战铁血战士2 / 异形大战铁血战士:安魂曲 / 异兽战2(港) / 异形战场2(台) / 异形大战铁血战士2:适者生存 / 异形大战掠夺者2

◎片 名 AVPR: Aliens vs Predator - Requiem

◎年 代 2007

◎产 地 美国

◎类 别 动作 / 科幻 / 惊悚

◎语 言 英语

◎上映日期 2007-12-25(美国)

◎IMDb链接 https://www.imdb.com/title/tt0758730/

◎豆瓣评分 5.9/10 (32913人评价)

◎豆瓣链接 https://movie.douban.com/subject/1578502/

◎片 长 94 分钟

◎导 演 科林·施特劳斯 Colin Strause (id:1041429)

格雷格·施特劳斯 Greg Strause (id:1014448)

◎编 剧 肖恩·萨莱诺 Shane Salerno (id:1037081)

丹·欧班农 Dan O'Bannon (id:1027500)

罗纳德·舒塞特 Ronald Shusett (id:1297534)

吉姆·托马斯 Jim Thomas (id:1299146)

约翰·托马斯 John Thomas (id:1299151)

◎演 员 史蒂文·帕斯奎尔 Steven Pasquale (id:1040715)

蕾可·艾尔丝沃斯 Reiko Aylesworth (id:1036514)

强尼·莱维斯 Johnny Lewis (id:1040659)

克里斯汀·哈格 Kristen Hager (id:1014039)

阿瑞尔·盖德 Ariel Gade (id:1045084)

维多利亚·拜德维尔 Victoria Bidewell (id:1066212)

叶芳华 Fran?oise Yip (id:1049868)

汤姆·伍德鲁夫 Tom Woodruff Jr. (id:1301250)

Andrew Hedge Andrew Hedge (id:1195263)

大卫·霍恩斯比 David Hornsby (id:1315876)

罗伯特·乔伊 Robert Joy (id:1025289)

泰·奥尔森 Ty Olsson (id:1323797)

雷克哈·莎尔玛 Rekha Sharma (id:1327186)

瑞安·罗宾斯 Ryan Robbins (id:1321434)

库蒂斯·卡拉瓦乔 Curtis Caravaggio (id:1327096)

阿德里安·霍夫 Adrian Hough (id:1344742)

约翰·奥提兹 John Ortiz (id:1018110)

山姆·特拉梅尔 Sam Trammell (id:1044711)

吉娜·赫尔顿 Gina Holden (id:1031948)

胡安·雷丁格尔 Juan Riedinger (id:1257541)

Meshach Peters Meshach Peters (id:1213416)

连姆·詹姆斯 Liam James (id:1022768)

谢拉赫·霍斯达尔 Chelah Horsdal (id:1212229)

伊恩·怀特 Ian Whyte (id:1183951)

米卡尔·苏查内克 Michal Suchánek (id:1151371)

大卫·佩特考 David Paetkau (id:1135567)

蓝宝·桑·法兰克斯 Rainbow Sun Francks (id:1036748)

克里斯·威廉·马丁 Chris William Martin (id:1115670)

安东尼·哈里森 Anthony Harrison (id:1094213)

沃尔特·希尔 Walter Hill (id:1014030)

约翰·戴维斯 John Davis (id:1281912)

Paul Deason Paul Deason (id:1282116)

大卫·吉勒 David Giler (id:1284863)

布莱恩·泰勒 Brian Tyler (id:1276412)

丹·齐玛曼 Dan Zimmerman (id:1001122)

Andrew Neskoromny Andrew Neskoromny (id:1293058)

Helen Jarvis Helen Jarvis (id:1023878)

安格斯·斯特拉西 Angus Strathie (id:1298531)

杰恩·丹索斯 Jayne Dancose (id:1281760)

J.P. Mass J.P. Mass (id:1291233)

Ken Shane Ken Shane (id:1140102)

拉斯·P·温特 Lars P. Winther (id:1051237)

Janine Law Janine Law (id:1114217)

Kathy Houghton Kathy Houghton (id:1286968)

Jeff Habberstad Jeff Habberstad (id:1285749)

帕特里克·克兰斯 Patrick Clancey (id:1071903)

Eric Algren Eric Algren (id:1058115)

Jeff Heusser Jeff Heusser (id:1096668)

克里斯·英格索尔 Chris Ingersoll (id:1102738)

Richard Bennett Richard Bennett (id:1307957)

萨姆·爱德华兹 Sam Edwards (id:1224117)

Clark Parkhurst (id:1228742)

Felipe Fenton Felipe Fenton (id:1079785)

Sean Wallitsch (id:1234089)

扎克·贾德森 Zack Judson (id:1411059)

埃里克·布鲁威勒 Erik Bruhwiler (id:1308923)

罗布·霍奇森 Rob Hodgson (id:1286743)

Kirk Cadrette Kirk Cadrette (id:1279848)

Steve Bowen Steve Bowen (id:1279085)

丹尼塔·斯劳格赫特尔 Danita Slaughter (id:1239865)

连姆·O·达诺 Liam O'Donnell (id:1236819)

安德鲁·M·柯林斯 Andrew M. Collins (id:1235116)

肖恩·迪韦罗 Sean Devereaux (id:1051947)

凯西·艾伦 Casey Allen (id:1020582)

格雷格·施特劳斯 Greg Strause (id:1014448)

埃德森·威廉姆斯 Edson Williams (id:1043237)

科林·施特劳斯 Colin Strause (id:1041429)

◎简 介

恶战结束,两名铁血战士带着死去同伴的尸体向家乡返航。令他们想不到的是,死去同伴的身体竟成为异形幼卵的栖息地,成熟的异形破胸而出,并且兼具异形和铁血战士的强大威力,成为了连铁血战士也难以撼动的终极异形。一场残酷的杀戮随即在飞船上进行,最终导致飞船坠毁在科罗拉多州的群山之中。

幸存的异形逃出飞船,并开始恐怖的繁殖,而附近的康尼森小镇的居民也不可避免地成为异形狩猎和寄生的对象,原本宁静祥和的小镇变成了恐怖的人间地狱。与此同时,一个留在地球的铁血战士获知了同伴死前发出的信息,他决定与这群宿命的恶魔敌人奋战到底……

◎获奖情况 (共1项)

第17届MTV电影奖 (2008)

MTV电影奖 最佳打斗(提名)

  1. Video

  2. ID : 1

  3. ID in the original source medium : 4113 (0x1011)

  4. Format : AVC

  5. Format/Info : Advanced Video Codec

  6. Format profile : [email protected]

  7. Format settings : CABAC / 4 Ref Frames

  8. Format settings, CABAC : Yes

  9. Format settings, Reference frames : 4 frames

  10. Codec ID : V_MPEG4/ISO/AVC

  11. Duration : 1 h 41 min

  12. Bit rate mode : Variable

  13. Bit rate : 26.6 Mb/s

  14. Maximum bit rate : 36.5 Mb/s

  15. Width : 1 920 pixels

  16. Height : 1 080 pixels

  17. Display aspect ratio : 16:9

  18. Frame rate mode : Constant

  19. Frame rate : 23.976 (24000/1001/53354) FPS

  20. Color space : YUV

  21. Chroma subsampling : 4:2:0

  22. Bit depth : 8 bits

  23. Scan type : Progressive

  24. Bits/(Pixel*Frame) : 0.535

  25. Stream size : 18.8 GiB (82%)

  26. Language : English

  27. Default : No

  28. Forced : No

  29. Color range : Limited

  30. Color primaries : BT.709

  31. Transfer characteristics : BT.709

  32. Matrix coefficients : BT.709

  33. Original source medium : Blu-ray


  34. Audio #1

  35. ID : 2

  36. ID in the original source medium : 4352 (0x1100)

  37. Format : DTS XLL

  38. Format/Info : Digital Theater Systems

  39. Commercial name : DTS-HD Master Audio

  40. Codec ID : A_DTS

  41. Duration : 1 h 41 min

  42. Bit rate mode : Variable

  43. Bit rate : 4 323 kb/s

  44. Channel(s) : 6 channels

  45. Channel layout : C L R Ls Rs LFE

  46. Sampling rate : 48.0 kHz

  47. Frame rate : 93.750 FPS (512 SPF)

  48. Bit depth : 24 bits

  49. Compression mode : Lossless

  50. Stream size : 3.05 GiB (13%)

  51. Title : DTS-HD MA 5.1

  52. Language : English

  53. Default : Yes

  54. Forced : No

  55. Original source medium : Blu-ray


  56. Audio #2

  57. ID : 3

  58. ID in the original source medium : 4353 (0x1101)

  59. Format : AC-3

  60. Format/Info : Audio Coding 3

  61. Commercial name : Dolby Digital

  62. Codec ID : A_AC3

  63. Duration : 1 h 41 min

  64. Bit rate mode : Constant

  65. Bit rate : 448 kb/s

  66. Channel(s) : 6 channels

  67. Channel layout : L R C LFE Ls Rs

  68. Sampling rate : 48.0 kHz

  69. Frame rate : 31.250 FPS (1536 SPF)

  70. Compression mode : Lossy

  71. Stream size : 324 MiB (1%)

  72. Title : DD 5.1

  73. Language : Spanish

  74. Service kind : Complete Main

  75. Default : No

  76. Forced : No

  77. Original source medium : Blu-ray


  78. Audio #3

  79. ID : 4

  80. ID in the original source medium : 4354 (0x1102)

  81. Format : AC-3

  82. Format/Info : Audio Coding 3

  83. Commercial name : Dolby Digital

  84. Codec ID : A_AC3

  85. Duration : 1 h 41 min

  86. Bit rate mode : Constant

  87. Bit rate : 448 kb/s

  88. Channel(s) : 6 channels

  89. Channel layout : L R C LFE Ls Rs

  90. Sampling rate : 48.0 kHz

  91. Frame rate : 31.250 FPS (1536 SPF)

  92. Compression mode : Lossy

  93. Stream size : 324 MiB (1%)

  94. Title : DD 5.1

  95. Language : French

  96. Service kind : Complete Main

  97. Default : No

  98. Forced : No

  99. Original source medium : Blu-ray


  100. Audio #4

  101. ID : 5

  102. ID in the original source medium : 4357 (0x1105)

  103. Format : AC-3

  104. Format/Info : Audio Coding 3

  105. Commercial name : Dolby Digital

  106. Codec ID : A_AC3

  107. Duration : 1 h 41 min

  108. Bit rate mode : Constant

  109. Bit rate : 224 kb/s

  110. Channel(s) : 2 channels

  111. Channel layout : L R

  112. Sampling rate : 48.0 kHz

  113. Frame rate : 31.250 FPS (1536 SPF)

  114. Compression mode : Lossy

  115. Stream size : 162 MiB (1%)

  116. Title : DD 2.0

  117. Language : English

  118. Service kind : Complete Main

  119. Default : No

  120. Forced : No

  121. Original source medium : Blu-ray


  122. Audio #5

  123. ID : 6

  124. ID in the original source medium : 4358 (0x1106)

  125. Format : AC-3

  126. Format/Info : Audio Coding 3

  127. Commercial name : Dolby Digital

  128. Codec ID : A_AC3

  129. Duration : 1 h 41 min

  130. Bit rate mode : Constant

  131. Bit rate : 224 kb/s

  132. Channel(s) : 2 channels

  133. Channel layout : L R

  134. Sampling rate : 48.0 kHz

  135. Frame rate : 31.250 FPS (1536 SPF)

  136. Compression mode : Lossy

  137. Stream size : 162 MiB (1%)

  138. Title : DD 2.0

  139. Language : English

  140. Service kind : Complete Main

  141. Default : No

  142. Forced : No

  143. Original source medium : Blu-ray


  144. Text #1

  145. ID : 7

  146. Format : UTF-8

  147. Codec ID : S_TEXT/UTF8

  148. Codec ID/Info : UTF-8 Plain Text

  149. Duration : 1 h 39 min

  150. Bit rate : 26 b/s

  151. Count of elements : 843

  152. Stream size : 19.2 KiB (0%)

  153. Language : English

  154. Default : Yes

  155. Forced : No


  156. Text #2

  157. ID : 8

  158. Format : UTF-8

  159. Codec ID : S_TEXT/UTF8

  160. Codec ID/Info : UTF-8 Plain Text

  161. Duration : 1 h 40 min

  162. Bit rate : 41 b/s

  163. Count of elements : 1461

  164. Stream size : 30.7 KiB (0%)

  165. Title : SDH

  166. Language : English

  167. Default : No

  168. Forced : No


  169. Text #3

  170. ID : 9

  171. ID in the original source medium : 4608 (0x1200)

  172. Format : PGS

  173. Muxing mode : zlib

  174. Codec ID : S_HDMV/PGS

  175. Codec ID/Info : Picture based subtitle format used on BDs/HD-DVDs

  176. Duration : 1 h 40 min

  177. Bit rate : 42.9 kb/s

  178. Count of elements : 2934

  179. Stream size : 31.0 MiB (0%)

  180. Language : English

  181. Default : No

  182. Forced : No

  183. Original source medium : Blu-ray


  184. Text #4

  185. ID : 10

  186. ID in the original source medium : 4609 (0x1201)

  187. Format : PGS

  188. Muxing mode : zlib

  189. Codec ID : S_HDMV/PGS

  190. Codec ID/Info : Picture based subtitle format used on BDs/HD-DVDs

  191. Duration : 1 h 40 min

  192. Bit rate : 24.6 kb/s

  193. Count of elements : 1467

  194. Stream size : 17.8 MiB (0%)

  195. Language : Spanish

  196. Default : No

  197. Forced : No

  198. Original source medium : Blu-ray


  199. Text #5

  200. ID : 11

  201. ID in the original source medium : 4610 (0x1202)

  202. Format : PGS

  203. Muxing mode : zlib

  204. Codec ID : S_HDMV/PGS

  205. Codec ID/Info : Picture based subtitle format used on BDs/HD-DVDs

  206. Duration : 1 h 40 min

  207. Bit rate : 20.6 kb/s

  208. Count of elements : 1383

  209. Stream size : 14.7 MiB (0%)

  210. Language : Chinese

  211. Default : No

  212. Forced : No

  213. Original source medium : Blu-ray


  214. Text #6

  215. ID : 12

  216. ID in the original source medium : 4611 (0x1203)

  217. Format : PGS

  218. Muxing mode : zlib

  219. Codec ID : S_HDMV/PGS

  220. Codec ID/Info : Picture based subtitle format used on BDs/HD-DVDs

  221. Duration : 1 h 40 min

  222. Bit rate : 24.3 kb/s

  223. Count of elements : 1417

  224. Stream size : 17.4 MiB (0%)

  225. Language : Chinese

  226. Default : No

  227. Forced : No

  228. Original source medium : Blu-ray


  229. Text #7

  230. ID : 13

  231. ID in the original source medium : 4612 (0x1204)

  232. Format : PGS

  233. Muxing mode : zlib

  234. Codec ID : S_HDMV/PGS

  235. Codec ID/Info : Picture based subtitle format used on BDs/HD-DVDs

  236. Duration : 1 h 40 min

  237. Bit rate : 22.8 kb/s

  238. Count of elements : 1463

  239. Stream size : 16.3 MiB (0%)

  240. Language : Korean

  241. Default : No

  242. Forced : No

  243. Original source medium : Blu-ray


  244. Text #8

  245. ID : 14

  246. ID in the original source medium : 4613 (0x1205)

  247. Format : PGS

  248. Muxing mode : zlib

  249. Codec ID : S_HDMV/PGS

  250. Codec ID/Info : Picture based subtitle format used on BDs/HD-DVDs

  251. Duration : 1 h 40 min

  252. Bit rate : 3 130 b/s

  253. Count of elements : 222

  254. Stream size : 2.26 MiB (0%)

  255. Language : Spanish

  256. Default : No

  257. Forced : No

  258. Original source medium : Blu-ray


  259. Text #9

  260. ID : 15

  261. ID in the original source medium : 4613 (0x1205)

  262. Format : PGS

  263. Muxing mode : zlib

  264. Codec ID : S_HDMV/PGS

  265. Codec ID/Info : Picture based subtitle format used on BDs/HD-DVDs

  266. Duration : 1 h 25 min

  267. Bit rate : 3 696 b/s

  268. Count of elements : 166

  269. Stream size : 2.26 MiB (0%)

  270. Language : Spanish

  271. Default : No

  272. Forced : No

  273. Original source medium : Blu-ray


  274. Text #10

  275. ID : 16

  276. ID in the original source medium : 4614 (0x1206)

  277. Format : PGS

  278. Muxing mode : zlib

  279. Codec ID : S_HDMV/PGS

  280. Codec ID/Info : Picture based subtitle format used on BDs/HD-DVDs

  281. Duration : 1 h 40 min

  282. Bit rate : 3 301 b/s

  283. Count of elements : 224

  284. Stream size : 2.38 MiB (0%)

  285. Language : French

  286. Default : No

  287. Forced : No

  288. Original source medium : Blu-ray


  289. Text #11

  290. ID : 17

  291. ID in the original source medium : 4614 (0x1206)

  292. Format : PGS

  293. Muxing mode : zlib

  294. Codec ID : S_HDMV/PGS

  295. Codec ID/Info : Picture based subtitle format used on BDs/HD-DVDs

  296. Duration : 1 h 26 min

  297. Bit rate : 3 862 b/s

  298. Count of elements : 170

  299. Stream size : 2.38 MiB (0%)

  300. Language : French

  301. Default : No

  302. Forced : No

  303. Original source medium : Blu-ray


  304. Menu

  305. 00:00:00.000 : en:Chapter 01

  306. 00:03:44.432 : en:Chapter 02

  307. 00:05:57.023 : en:Chapter 03

  308. 00:06:51.828 : en:Chapter 04

  309. 00:08:44.190 : en:Chapter 05

  310. 00:13:27.306 : en:Chapter 06

  311. 00:15:19.793 : en:Chapter 07

  312. 00:19:29.251 : en:Chapter 08

  313. 00:24:27.674 : en:Chapter 09

  314. 00:29:51.498 : en:Chapter 10

  315. 00:33:27.422 : en:Chapter 11

  316. 00:38:34.270 : en:Chapter 12

  317. 00:39:59.355 : en:Chapter 13

  318. 00:42:41.934 : en:Chapter 14

  319. 00:45:33.564 : en:Chapter 15

  320. 00:50:05.711 : en:Chapter 16

  321. 00:53:40.217 : en:Chapter 17

  322. 00:59:39.909 : en:Chapter 18

  323. 01:04:57.727 : en:Chapter 19

  324. 01:06:52.758 : en:Chapter 20

  325. 01:09:24.243 : en:Chapter 21

  326. 01:12:09.742 : en:Chapter 22

  327. 01:16:36.967 : en:Chapter 23

  328. 01:19:14.374 : en:Chapter 24

  329. 01:23:19.661 : en:Chapter 25

  330. 01:28:44.193 : en:Chapter 26

  331. 01:31:31.944 : en:Chapter 27

  332. 01:34:05.598 : en:Chapter 28

复制代码

异形大战铁血战士2[中文字幕].Aliens.vs.Predator.Requiem.2007.UNRATED.1080p.BluRay.REMUX.AVC.DTS HD.MA.5.1 FGT 22.  欧美电影  第2张 异形大战铁血战士2[中文字幕].Aliens.vs.Predator.Requiem.2007.UNRATED.1080p.BluRay.REMUX.AVC.DTS HD.MA.5.1 FGT 22.  欧美电影  第3张 异形大战铁血战士2[中文字幕].Aliens.vs.Predator.Requiem.2007.UNRATED.1080p.BluRay.REMUX.AVC.DTS HD.MA.5.1 FGT 22.  欧美电影  第4张



文件下载


除非特别注明,本文『异形大战铁血战士2[中文字幕].Aliens.vs.Predator.Requiem.2007.UNRATED.1080p.BluRay.REMUX.AVC.DTS-HD.MA.5.1-FGT 22.』来源于互联网机器人自动抓取,非本站原创。 浮游电影网不对本文拥有版权,如有侵犯,请联系邮箱:fuyouu#yandex.com[#换成@]投诉。我们会在15个工作日内删除。 但烦请转载时请标明出处:“本文转载于『浮游电影网』,原文地址:https://www.fuyouu.com/21505.html

评论吧骚年!

发表你的见解   

昵称*

E-mail*(建议输入,以便收到博主回复的提示邮件)

验证码*

您可以使用eMule或eMule Mod(Windows)、aMule(Win、Linux、Mac)等软件下载eD2k链接。。
eMule收藏集(.emulecollection)文件是您选中的所有链接的列表文件。eMule可以直接下载它们。
按住SHIFT键选择可以选中多个选择框。
可用文件名和大小选择器来选择文件。
文件名选择器帮您根据文件名称或后缀来选择文件。不分大小写。
符号使用:
和:空格( )、+
不包含:-
或:|
转义:一对英文引号("");
匹配开头:^
匹配结尾:$
例如:
选中所有名称中包含有“eMule”或“0.49c”字眼,但不包含有“exe”字眼的:emule|0.49c -exe
选中所有名称的开头是“eMule”,结尾是“0.49c”的:^emule 0.49c$
选中所有名称中带有“eMule 0.49c”的(必须是“eMule 0.49c”,中间没有别的字符,不能是“eMule fake 0.49c”),需要转义:"emule 0.49c"
大小选择器帮您根据文件大小选择文件。