当前位置: 首页 >> 欧美电影 >> 异形:契约[中文字幕].Alien.Covenant.2017.1080p.BluRay.REMUX.AVC.DTS-HD.MA.TrueHD.7.1.Atmos-FGT 35.76GB >> 正文

异形:契约[中文字幕].Alien.Covenant.2017.1080p.BluRay.REMUX.AVC.DTS-HD.MA.TrueHD.7.1.Atmos-FGT 35.76GB

2022年04月20日 12:04:53     电影发布:来源于网络     电影分类:欧美电影     评论(0)    

异形:契约[中文字幕].Alien.Covenant.2017.1080p.BluRay.REMUX.AVC.DTS HD.MA.TrueHD.7.1.Atmos FGT 35.76GB  欧美电影  第1张

◎译 名 异形:契约 / 异形:圣约(港 / 台) / 神奇异形在哪里(豆友译名) / 已开:大勺(豆友译名) / 异形:失乐园 / 普罗米修斯2 / Prometheus 2 / Alien: Paradise Lost

◎片 名 Alien: Covenant

◎年 代 2017

◎产 地 美国

◎类 别 科幻 / 恐怖

◎语 言 英语

◎上映日期 2017-06-16(中国大陆) / 2017-05-10(法国) / 2017-05-19(美国)

◎IMDb链接 https://www.imdb.com/title/tt2316204/

◎豆瓣评分 7.4/10 (236031人评价)

◎豆瓣链接 https://movie.douban.com/subject/11803087/

◎片 长 122分钟

◎导 演 雷德利·斯科特 Ridley Scott (id:1054416)

◎编 剧 迈克尔·格林 Michael Green (id:1339873)

约翰·洛根 John Logan (id:1118279)

杰克·帕格恩 Jack Paglen (id:1339385)

◎演 员 迈克尔·法斯宾德 Michael Fassbender (id:1000010)

凯瑟琳·沃特斯顿 Katherine Waterston (id:1316589)

比利·克鲁德普 Billy Crudup (id:1009265)

丹尼·麦克布莱德 Danny McBride (id:1013797)

德米安·比齐尔 Demián Bichir (id:1022762)

卡门·艾乔戈 Carmen Ejogo (id:1014022)

朱西·斯莫利特 Jussie Smollett (id:1153078)

考莉·埃尔南德斯 Callie Hernandez (id:1339675)

艾米·西米茨 Amy Seimetz (id:1307449)

纳撒尼尔·迪安 Nathaniel Dean (id:1303273)

亚历山大·英格兰 Alexander England (id:1374204)

本杰明·里格比 Benjamin Rigby (id:1355648)

乌利·拉图基孚 Uli Latukefu (id:1374205)

泰丝·哈乌布里奇 Tess Haubrich (id:1360418)

罗蕾莱·金 Lorelei King (id:1374206)

哈维尔·博泰特 Javier Botet (id:1247131)

詹姆斯·弗兰科 James Franco (id:1019001)

盖·皮尔斯 Guy Pearce (id:1035672)

劳米·拉佩斯 Noomi Rapace (id:1013796)

戈兰·D·克鲁特 Goran D. Kleut (id:1336258)

雷德利·斯科特 Ridley Scott (id:1054416)

迈克尔·舍费尔 Michael Schaefer (id:1355118)

杰德·库泽尔 Jed Kurzel (id:1376075)

达瑞兹·沃斯基 Dariusz Wolski (id:1276296)

卢克·斯科特 Luke Scott (id:1359686)

劳伦·麦卡勒姆 Lauren McCallum (id:1416840)

拉斐尔·皮门特尔 Raphael A. Pimentel (id:1419122)

伊利亚·阿法纳西耶夫 Illia Afanasiev (id:1405394)

◎简 介

故事发生在一艘名为“契约”的殖民太空船之上,飞船上搭载了两千名进入沉睡的殖民者,他们的目的地是遥远的欧米伽六号行星,希望能够在那里建立新的家园。一场意外的发生令契约号的能量收集帆遭到了破坏,船长布兰森(詹姆斯·弗兰科 James Franco 饰)亦不幸身亡。作为代理船长的欧朗(比利·克鲁德普 Billy Crudup 饰)带领着惊恐而又悲伤的船员们降落到了一颗未知的神秘星球上。

在这里,他们遇见了仿生人大卫(迈克尔·法斯宾德 Michael Fassbender 饰),大卫热情的接纳了人类的到来,并讲述了他和已故的肖博士(劳米·拉佩斯 Noomi Rapace 饰)在这里生活的经历。就在大卫渐渐赢得了船员们的信任的同时,大家已经一步一步的走入了前者为他们精心打造的地狱之中。

◎获奖情况 (共6项)

第22届金卫星奖 (2018)

电影部门 最佳视觉效果(提名)

第4届豆瓣电影年度榜单 (2017)

评分最高的科幻/动作片(提名)

评分最高的恐怖片(提名)

年度电影原声(提名)

6月最受关注电影(提名)

第3届豆瓣电影年度榜单 (2016)

最值得期待的外语电影(提名)

  1. Video

  2. ID : 1

  3. ID in the original source medium : 4113 (0x1011)

  4. Format : AVC

  5. Format/Info : Advanced Video Codec

  6. Format profile : [email protected]

  7. Format settings : CABAC / 4 Ref Frames

  8. Format settings, CABAC : Yes

  9. Format settings, Reference frames : 4 frames

  10. Codec ID : V_MPEG4/ISO/AVC

  11. Duration : 2 h 2 min

  12. Bit rate mode : Variable

  13. Bit rate : 25.0 Mb/s

  14. Maximum bit rate : 31.0 Mb/s

  15. Width : 1 920 pixels

  16. Height : 1 080 pixels

  17. Display aspect ratio : 16:9

  18. Frame rate mode : Constant

  19. Frame rate : 23.976 (24000/1001/53354) FPS

  20. Color space : YUV

  21. Chroma subsampling : 4:2:0

  22. Bit depth : 8 bits

  23. Scan type : Progressive

  24. Bits/(Pixel*Frame) : 0.502

  25. Stream size : 21.3 GiB (60%)

  26. Language : English

  27. Default : No

  28. Forced : No

  29. Original source medium : Blu-ray


  30. Audio #1

  31. ID : 2

  32. Format : MLP FBA 16-ch

  33. Format/Info : Meridian Lossless Packing FBA with 16-channel presentation

  34. Commercial name : Dolby TrueHD with Dolby Atmos

  35. Codec ID : A_TRUEHD

  36. Duration : 2 h 2 min

  37. Bit rate mode : Variable

  38. Bit rate : 5 713 kb/s

  39. Maximum bit rate : 9 858 kb/s

  40. Channel(s) : 8 channels

  41. Channel layout : L R C LFE Ls Rs Lb Rb

  42. Sampling rate : 48.0 kHz

  43. Frame rate : 1 200.000 FPS (40 SPF)

  44. Compression mode : Lossless

  45. Delay relative to video : 32 ms

  46. Stream size : 4.87 GiB (14%)

  47. Title : TrueHD 7.1 Aatmos

  48. Language : English

  49. Default : Yes

  50. Forced : No

  51. Number of dynamic objects : 13

  52. Bed channel count : 1 channel

  53. Bed channel configuration : LFE


  54. Audio #2

  55. ID : 3

  56. ID in the original source medium : 4352 (0x1100)

  57. Format : DTS ES XLL

  58. Format/Info : Digital Theater Systems

  59. Commercial name : DTS-HD Master Audio

  60. Codec ID : A_DTS

  61. Duration : 2 h 2 min

  62. Bit rate mode : Variable

  63. Bit rate : 5 341 kb/s

  64. Channel(s) : 8 channels

  65. Channel layout : C L R Ls Rs LFE Lb Rb

  66. Sampling rate : 48.0 kHz

  67. Frame rate : 93.750 FPS (512 SPF)

  68. Bit depth : 24 bits

  69. Compression mode : Lossless

  70. Stream size : 4.55 GiB (13%)

  71. Title : DTS-HD MA 7.1

  72. Language : English

  73. Default : No

  74. Forced : No

  75. Original source medium : Blu-ray


  76. Audio #3

  77. ID : 4

  78. Format : AC-3

  79. Format/Info : Audio Coding 3

  80. Commercial name : Dolby Digital

  81. Codec ID : A_AC3

  82. Duration : 2 h 2 min

  83. Bit rate mode : Constant

  84. Bit rate : 640 kb/s

  85. Channel(s) : 6 channels

  86. Channel layout : L R C LFE Ls Rs

  87. Sampling rate : 48.0 kHz

  88. Frame rate : 31.250 FPS (1536 SPF)

  89. Compression mode : Lossy

  90. Delay relative to video : 31 ms

  91. Stream size : 559 MiB (2%)

  92. Title : DD 5.1

  93. Language : English

  94. Service kind : Complete Main

  95. Default : No

  96. Forced : No


  97. Audio #4

  98. ID : 5

  99. Format : DTS

  100. Format/Info : Digital Theater Systems

  101. Codec ID : A_DTS

  102. Duration : 2 h 2 min

  103. Bit rate mode : Constant

  104. Bit rate : 768 kb/s

  105. Channel(s) : 6 channels

  106. Channel layout : C L R Ls Rs LFE

  107. Sampling rate : 48.0 kHz

  108. Frame rate : 93.750 FPS (512 SPF)

  109. Bit depth : 24 bits

  110. Compression mode : Lossy

  111. Stream size : 670 MiB (2%)

  112. Title : DTS 5.1

  113. Language : French

  114. Default : No

  115. Forced : No


  116. Audio #5

  117. ID : 6

  118. Format : DTS

  119. Format/Info : Digital Theater Systems

  120. Codec ID : A_DTS

  121. Duration : 2 h 2 min

  122. Bit rate mode : Constant

  123. Bit rate : 768 kb/s

  124. Channel(s) : 6 channels

  125. Channel layout : C L R Ls Rs LFE

  126. Sampling rate : 48.0 kHz

  127. Frame rate : 93.750 FPS (512 SPF)

  128. Bit depth : 24 bits

  129. Compression mode : Lossy

  130. Stream size : 670 MiB (2%)

  131. Title : DTS 5.1

  132. Language : Spanish

  133. Default : No

  134. Forced : No


  135. Audio #6

  136. ID : 7

  137. Format : DTS

  138. Format/Info : Digital Theater Systems

  139. Codec ID : A_DTS

  140. Duration : 2 h 2 min

  141. Bit rate mode : Constant

  142. Bit rate : 768 kb/s

  143. Channel(s) : 6 channels

  144. Channel layout : C L R Ls Rs LFE

  145. Sampling rate : 48.0 kHz

  146. Frame rate : 93.750 FPS (512 SPF)

  147. Bit depth : 24 bits

  148. Compression mode : Lossy

  149. Stream size : 670 MiB (2%)

  150. Title : DTS 5.1

  151. Language : German

  152. Default : No

  153. Forced : No


  154. Audio #7

  155. ID : 8

  156. Format : DTS

  157. Format/Info : Digital Theater Systems

  158. Codec ID : A_DTS

  159. Duration : 2 h 2 min

  160. Bit rate mode : Constant

  161. Bit rate : 768 kb/s

  162. Channel(s) : 6 channels

  163. Channel layout : C L R Ls Rs LFE

  164. Sampling rate : 48.0 kHz

  165. Frame rate : 93.750 FPS (512 SPF)

  166. Bit depth : 24 bits

  167. Compression mode : Lossy

  168. Stream size : 670 MiB (2%)

  169. Title : DTS 5.1

  170. Language : Italian

  171. Default : No

  172. Forced : No


  173. Audio #8

  174. ID : 9

  175. Format : DTS

  176. Format/Info : Digital Theater Systems

  177. Codec ID : A_DTS

  178. Duration : 2 h 2 min

  179. Bit rate mode : Constant

  180. Bit rate : 768 kb/s

  181. Channel(s) : 6 channels

  182. Channel layout : C L R Ls Rs LFE

  183. Sampling rate : 48.0 kHz

  184. Frame rate : 93.750 FPS (512 SPF)

  185. Bit depth : 24 bits

  186. Compression mode : Lossy

  187. Stream size : 670 MiB (2%)

  188. Title : DTS 5.1

  189. Language : Japanese

  190. Default : No

  191. Forced : No


  192. Audio #9

  193. ID : 10

  194. ID in the original source medium : 4353 (0x1101)

  195. Format : AC-3

  196. Format/Info : Audio Coding 3

  197. Commercial name : Dolby Digital

  198. Codec ID : A_AC3

  199. Duration : 2 h 2 min

  200. Bit rate mode : Constant

  201. Bit rate : 448 kb/s

  202. Channel(s) : 6 channels

  203. Channel layout : L R C LFE Ls Rs

  204. Sampling rate : 48.0 kHz

  205. Frame rate : 31.250 FPS (1536 SPF)

  206. Compression mode : Lossy

  207. Stream size : 391 MiB (1%)

  208. Title : DD 5.1

  209. Language : English

  210. Service kind : Complete Main

  211. Default : No

  212. Forced : No

  213. Original source medium : Blu-ray


  214. Audio #10

  215. ID : 11

  216. ID in the original source medium : 4356 (0x1104)

  217. Format : AC-3

  218. Format/Info : Audio Coding 3

  219. Commercial name : Dolby Digital

  220. Codec ID : A_AC3

  221. Duration : 2 h 2 min

  222. Bit rate mode : Constant

  223. Bit rate : 448 kb/s

  224. Channel(s) : 6 channels

  225. Channel layout : L R C LFE Ls Rs

  226. Sampling rate : 48.0 kHz

  227. Frame rate : 31.250 FPS (1536 SPF)

  228. Compression mode : Lossy

  229. Stream size : 391 MiB (1%)

  230. Title : DD 5.1

  231. Language : Portuguese

  232. Service kind : Complete Main

  233. Default : No

  234. Forced : No

  235. Original source medium : Blu-ray


  236. Audio #11

  237. ID : 12

  238. ID in the original source medium : 4357 (0x1105)

  239. Format : AC-3

  240. Format/Info : Audio Coding 3

  241. Commercial name : Dolby Digital

  242. Codec ID : A_AC3

  243. Duration : 2 h 2 min

  244. Bit rate mode : Constant

  245. Bit rate : 224 kb/s

  246. Channel(s) : 2 channels

  247. Channel layout : L R

  248. Sampling rate : 48.0 kHz

  249. Frame rate : 31.250 FPS (1536 SPF)

  250. Compression mode : Lossy

  251. Stream size : 196 MiB (0%)

  252. Title : Stereo

  253. Language : English

  254. Service kind : Complete Main

  255. Default : No

  256. Forced : No

  257. Original source medium : Blu-ray


  258. Text #1

  259. ID : 13

  260. Format : UTF-8

  261. Codec ID : S_TEXT/UTF8

  262. Codec ID/Info : UTF-8 Plain Text

  263. Duration : 1 h 54 min

  264. Bit rate : 44 b/s

  265. Count of elements : 1436

  266. Stream size : 37.2 KiB (0%)

  267. Language : English

  268. Default : No

  269. Forced : No


  270. Text #2

  271. ID : 14

  272. Format : UTF-8

  273. Codec ID : S_TEXT/UTF8

  274. Codec ID/Info : UTF-8 Plain Text

  275. Duration : 1 h 54 min

  276. Bit rate : 50 b/s

  277. Count of elements : 1695

  278. Stream size : 42.1 KiB (0%)

  279. Title : SDH

  280. Language : English

  281. Default : No

  282. Forced : No


  283. Text #3

  284. ID : 15

  285. ID in the original source medium : 4608 (0x1200)

  286. Format : PGS

  287. Muxing mode : zlib

  288. Codec ID : S_HDMV/PGS

  289. Codec ID/Info : Picture based subtitle format used on BDs/HD-DVDs

  290. Duration : 1 h 54 min

  291. Bit rate : 36.2 kb/s

  292. Count of elements : 3418

  293. Stream size : 29.5 MiB (0%)

  294. Language : English

  295. Default : No

  296. Forced : No

  297. Original source medium : Blu-ray


  298. Text #4

  299. ID : 16

  300. ID in the original source medium : 4609 (0x1201)

  301. Format : PGS

  302. Muxing mode : zlib

  303. Codec ID : S_HDMV/PGS

  304. Codec ID/Info : Picture based subtitle format used on BDs/HD-DVDs

  305. Duration : 2 h 0 min

  306. Bit rate : 25.7 kb/s

  307. Count of elements : 2654

  308. Stream size : 22.2 MiB (0%)

  309. Language : Spanish

  310. Default : No

  311. Forced : No

  312. Original source medium : Blu-ray


  313. Text #5

  314. ID : 17

  315. ID in the original source medium : 4609 (0x1201)

  316. Format : PGS

  317. Muxing mode : zlib

  318. Codec ID : S_HDMV/PGS

  319. Codec ID/Info : Picture based subtitle format used on BDs/HD-DVDs

  320. Duration : 1 h 15 min

  321. Bit rate : 108 b/s

  322. Count of elements : 6

  323. Stream size : 59.4 KiB (0%)

  324. Language : Spanish

  325. Default : No

  326. Forced : No

  327. Original source medium : Blu-ray


  328. Text #6

  329. ID : 18

  330. ID in the original source medium : 4610 (0x1202)

  331. Format : PGS

  332. Muxing mode : zlib

  333. Codec ID : S_HDMV/PGS

  334. Codec ID/Info : Picture based subtitle format used on BDs/HD-DVDs

  335. Duration : 2 h 0 min

  336. Bit rate : 26.2 kb/s

  337. Count of elements : 2680

  338. Stream size : 22.6 MiB (0%)

  339. Language : French

  340. Default : No

  341. Forced : No

  342. Original source medium : Blu-ray


  343. Text #7

  344. ID : 19

  345. ID in the original source medium : 4610 (0x1202)

  346. Format : PGS

  347. Muxing mode : zlib

  348. Codec ID : S_HDMV/PGS

  349. Codec ID/Info : Picture based subtitle format used on BDs/HD-DVDs

  350. Duration : 1 h 55 min

  351. Bit rate : 259 b/s

  352. Count of elements : 20

  353. Stream size : 220 KiB (0%)

  354. Language : French

  355. Default : No

  356. Forced : No

  357. Original source medium : Blu-ray


  358. Text #8

  359. ID : 20

  360. ID in the original source medium : 4611 (0x1203)

  361. Format : PGS

  362. Muxing mode : zlib

  363. Codec ID : S_HDMV/PGS

  364. Codec ID/Info : Picture based subtitle format used on BDs/HD-DVDs

  365. Duration : 2 h 0 min

  366. Bit rate : 22.7 kb/s

  367. Count of elements : 2124

  368. Stream size : 19.6 MiB (0%)

  369. Language : Danish

  370. Default : No

  371. Forced : No

  372. Original source medium : Blu-ray


  373. Text #9

  374. ID : 21

  375. ID in the original source medium : 4612 (0x1204)

  376. Format : PGS

  377. Muxing mode : zlib

  378. Codec ID : S_HDMV/PGS

  379. Codec ID/Info : Picture based subtitle format used on BDs/HD-DVDs

  380. Duration : 2 h 0 min

  381. Bit rate : 22.6 kb/s

  382. Count of elements : 2612

  383. Stream size : 19.5 MiB (0%)

  384. Language : Finnish

  385. Default : No

  386. Forced : No

  387. Original source medium : Blu-ray


  388. Text #10

  389. ID : 22

  390. ID in the original source medium : 4613 (0x1205)

  391. Format : PGS

  392. Muxing mode : zlib

  393. Codec ID : S_HDMV/PGS

  394. Codec ID/Info : Picture based subtitle format used on BDs/HD-DVDs

  395. Duration : 2 h 0 min

  396. Bit rate : 24.3 kb/s

  397. Count of elements : 2668

  398. Stream size : 20.9 MiB (0%)

  399. Language : Norwegian

  400. Default : No

  401. Forced : No

  402. Original source medium : Blu-ray


  403. Text #11

  404. ID : 23

  405. ID in the original source medium : 4614 (0x1206)

  406. Format : PGS

  407. Muxing mode : zlib

  408. Codec ID : S_HDMV/PGS

  409. Codec ID/Info : Picture based subtitle format used on BDs/HD-DVDs

  410. Duration : 2 h 0 min

  411. Bit rate : 23.6 kb/s

  412. Count of elements : 2634

  413. Stream size : 20.3 MiB (0%)

  414. Language : Portuguese

  415. Default : No

  416. Forced : No

  417. Original source medium : Blu-ray


  418. Text #12

  419. ID : 24

  420. ID in the original source medium : 4615 (0x1207)

  421. Format : PGS

  422. Muxing mode : zlib

  423. Codec ID : S_HDMV/PGS

  424. Codec ID/Info : Picture based subtitle format used on BDs/HD-DVDs

  425. Duration : 2 h 0 min

  426. Bit rate : 24.6 kb/s

  427. Count of elements : 2656

  428. Stream size : 21.2 MiB (0%)

  429. Language : Swedish

  430. Default : No

  431. Forced : No

  432. Original source medium : Blu-ray


  433. Text #13

  434. ID : 25

  435. Format : PGS

  436. Muxing mode : zlib

  437. Codec ID : S_HDMV/PGS

  438. Codec ID/Info : Picture based subtitle format used on BDs/HD-DVDs

  439. Duration : 2 h 0 min

  440. Bit rate : 25.2 kb/s

  441. Count of elements : 2548

  442. Stream size : 21.8 MiB (0%)

  443. Language : German

  444. Default : No

  445. Forced : No


  446. Text #14

  447. ID : 26

  448. Format : PGS

  449. Muxing mode : zlib

  450. Codec ID : S_HDMV/PGS

  451. Codec ID/Info : Picture based subtitle format used on BDs/HD-DVDs

  452. Duration : 2 h 0 min

  453. Bit rate : 25.1 kb/s

  454. Count of elements : 2658

  455. Stream size : 21.6 MiB (0%)

  456. Language : Italian

  457. Default : No

  458. Forced : No


  459. Text #15

  460. ID : 27

  461. Format : PGS

  462. Muxing mode : zlib

  463. Codec ID : S_HDMV/PGS

  464. Codec ID/Info : Picture based subtitle format used on BDs/HD-DVDs

  465. Duration : 2 h 0 min

  466. Bit rate : 24.3 kb/s

  467. Count of elements : 2668

  468. Stream size : 21.0 MiB (0%)

  469. Language : Norwegian

  470. Default : No

  471. Forced : No


  472. Text #16

  473. ID : 28

  474. Format : PGS

  475. Muxing mode : zlib

  476. Codec ID : S_HDMV/PGS

  477. Codec ID/Info : Picture based subtitle format used on BDs/HD-DVDs

  478. Duration : 2 h 0 min

  479. Bit rate : 24.6 kb/s

  480. Count of elements : 2656

  481. Stream size : 21.2 MiB (0%)

  482. Language : Swedish

  483. Default : No

  484. Forced : No


  485. Text #17

  486. ID : 29

  487. Format : PGS

  488. Muxing mode : zlib

  489. Codec ID : S_HDMV/PGS

  490. Codec ID/Info : Picture based subtitle format used on BDs/HD-DVDs

  491. Duration : 2 h 0 min

  492. Bit rate : 19.8 kb/s

  493. Count of elements : 2720

  494. Stream size : 17.0 MiB (0%)

  495. Language : Chinese

  496. Default : No

  497. Forced : No


  498. Text #18

  499. ID : 30

  500. Format : PGS

  501. Muxing mode : zlib

  502. Codec ID : S_HDMV/PGS

  503. Codec ID/Info : Picture based subtitle format used on BDs/HD-DVDs

  504. Duration : 2 h 0 min

  505. Bit rate : 18.9 kb/s

  506. Count of elements : 2702

  507. Stream size : 16.3 MiB (0%)

  508. Language : Chinese

  509. Default : No

  510. Forced : No


  511. Text #19

  512. ID : 31

  513. ID in the original source medium : 4616 (0x1208)

  514. Format : PGS

  515. Muxing mode : zlib

  516. Codec ID : S_HDMV/PGS

  517. Codec ID/Info : Picture based subtitle format used on BDs/HD-DVDs

  518. Duration : 1 h 55 min

  519. Bit rate : 64.3 kb/s

  520. Count of elements : 4186

  521. Stream size : 53.1 MiB (0%)

  522. Title : COMMENTARY

  523. Language : English

  524. Default : No

  525. Forced : No

  526. Original source medium : Blu-ray


  527. Text #20

  528. ID : 32

  529. ID in the original source medium : 4617 (0x1209)

  530. Format : PGS

  531. Muxing mode : zlib

  532. Codec ID : S_HDMV/PGS

  533. Codec ID/Info : Picture based subtitle format used on BDs/HD-DVDs

  534. Duration : 2 h 1 min

  535. Bit rate : 52.3 kb/s

  536. Count of elements : 3938

  537. Stream size : 45.6 MiB (0%)

  538. Title : COMMENTARY

  539. Language : Spanish

  540. Default : No

  541. Forced : No

  542. Original source medium : Blu-ray


  543. Text #21

  544. ID : 33

  545. ID in the original source medium : 4618 (0x120A)

  546. Format : PGS

  547. Muxing mode : zlib

  548. Codec ID : S_HDMV/PGS

  549. Codec ID/Info : Picture based subtitle format used on BDs/HD-DVDs

  550. Duration : 2 h 1 min

  551. Bit rate : 51.7 kb/s

  552. Count of elements : 3938

  553. Stream size : 45.1 MiB (0%)

  554. Title : COMMENTARY

  555. Language : French

  556. Default : No

  557. Forced : No

  558. Original source medium : Blu-ray


  559. Text #22

  560. ID : 34

  561. ID in the original source medium : 4619 (0x120B)

  562. Format : PGS

  563. Muxing mode : zlib

  564. Codec ID : S_HDMV/PGS

  565. Codec ID/Info : Picture based subtitle format used on BDs/HD-DVDs

  566. Duration : 2 h 1 min

  567. Bit rate : 51.7 kb/s

  568. Count of elements : 3882

  569. Stream size : 45.1 MiB (0%)

  570. Title : COMMENTARY

  571. Language : Danish

  572. Default : No

  573. Forced : No

  574. Original source medium : Blu-ray


  575. Text #23

  576. ID : 35

  577. ID in the original source medium : 4620 (0x120C)

  578. Format : PGS

  579. Muxing mode : zlib

  580. Codec ID : S_HDMV/PGS

  581. Codec ID/Info : Picture based subtitle format used on BDs/HD-DVDs

  582. Duration : 2 h 1 min

  583. Bit rate : 46.8 kb/s

  584. Count of elements : 3936

  585. Stream size : 40.8 MiB (0%)

  586. Title : COMMENTARY

  587. Language : Finnish

  588. Default : No

  589. Forced : No

  590. Original source medium : Blu-ray


  591. Text #24

  592. ID : 36

  593. ID in the original source medium : 4621 (0x120D)

  594. Format : PGS

  595. Muxing mode : zlib

  596. Codec ID : S_HDMV/PGS

  597. Codec ID/Info : Picture based subtitle format used on BDs/HD-DVDs

  598. Duration : 2 h 1 min

  599. Bit rate : 52.6 kb/s

  600. Count of elements : 3930

  601. Stream size : 45.8 MiB (0%)

  602. Title : COMMENTARY

  603. Language : Norwegian

  604. Default : No

  605. Forced : No

  606. Original source medium : Blu-ray


  607. Text #25

  608. ID : 37

  609. ID in the original source medium : 4622 (0x120E)

  610. Format : PGS

  611. Muxing mode : zlib

  612. Codec ID : S_HDMV/PGS

  613. Codec ID/Info : Picture based subtitle format used on BDs/HD-DVDs

  614. Duration : 2 h 1 min

  615. Bit rate : 53.5 kb/s

  616. Count of elements : 3930

  617. Stream size : 46.7 MiB (0%)

  618. Title : COMMENTARY

  619. Language : Swedish

  620. Default : No

  621. Forced : No

  622. Original source medium : Blu-ray


  623. Text #26

  624. ID : 38

  625. Format : PGS

  626. Muxing mode : zlib

  627. Codec ID : S_HDMV/PGS

  628. Codec ID/Info : Picture based subtitle format used on BDs/HD-DVDs

  629. Duration : 1 h 44 min

  630. Bit rate : 234 b/s

  631. Count of elements : 28

  632. Stream size : 180 KiB (0%)

  633. Language : Japanese

  634. Default : No

  635. Forced : No


  636. Menu

  637. 00:00:00.000 : en:Chapter 01

  638. 00:04:47.662 : en:Chapter 02

  639. 00:13:07.495 : en:Chapter 03

  640. 00:18:11.924 : en:Chapter 04

  641. 00:22:46.448 : en:Chapter 05

  642. 00:27:51.169 : en:Chapter 06

  643. 00:33:12.907 : en:Chapter 07

  644. 00:37:18.736 : en:Chapter 08

  645. 00:42:19.912 : en:Chapter 09

  646. 00:47:43.694 : en:Chapter 10

  647. 00:52:04.371 : en:Chapter 11

  648. 00:55:56.269 : en:Chapter 12

  649. 01:00:17.447 : en:Chapter 13

  650. 01:06:20.643 : en:Chapter 14

  651. 01:11:25.030 : en:Chapter 15

  652. 01:16:35.882 : en:Chapter 16

  653. 01:21:10.031 : en:Chapter 17

  654. 01:28:18.793 : en:Chapter 18

  655. 01:31:21.559 : en:Chapter 19

  656. 01:34:52.436 : en:Chapter 20

  657. 01:39:23.666 : en:Chapter 21

  658. 01:43:35.876 : en:Chapter 22

  659. 01:50:49.309 : en:Chapter 23

  660. 01:55:27.754 : en:Chapter 24

复制代码

异形:契约[中文字幕].Alien.Covenant.2017.1080p.BluRay.REMUX.AVC.DTS HD.MA.TrueHD.7.1.Atmos FGT 35.76GB  欧美电影  第2张 异形:契约[中文字幕].Alien.Covenant.2017.1080p.BluRay.REMUX.AVC.DTS HD.MA.TrueHD.7.1.Atmos FGT 35.76GB  欧美电影  第3张 异形:契约[中文字幕].Alien.Covenant.2017.1080p.BluRay.REMUX.AVC.DTS HD.MA.TrueHD.7.1.Atmos FGT 35.76GB  欧美电影  第4张



文件下载


除非特别注明,本文『异形:契约[中文字幕].Alien.Covenant.2017.1080p.BluRay.REMUX.AVC.DTS-HD.MA.TrueHD.7.1.Atmos-FGT 35.76GB』来源于互联网机器人自动抓取,非本站原创。 浮游电影网不对本文拥有版权,如有侵犯,请联系邮箱:fuyouu#yandex.com[#换成@]投诉。我们会在15个工作日内删除。 但烦请转载时请标明出处:“本文转载于『浮游电影网』,原文地址:https://www.fuyouu.com/21504.html

评论吧骚年!

发表你的见解   

昵称*

E-mail*(建议输入,以便收到博主回复的提示邮件)

验证码*

您可以使用eMule或eMule Mod(Windows)、aMule(Win、Linux、Mac)等软件下载eD2k链接。。
eMule收藏集(.emulecollection)文件是您选中的所有链接的列表文件。eMule可以直接下载它们。
按住SHIFT键选择可以选中多个选择框。
可用文件名和大小选择器来选择文件。
文件名选择器帮您根据文件名称或后缀来选择文件。不分大小写。
符号使用:
和:空格( )、+
不包含:-
或:|
转义:一对英文引号("");
匹配开头:^
匹配结尾:$
例如:
选中所有名称中包含有“eMule”或“0.49c”字眼,但不包含有“exe”字眼的:emule|0.49c -exe
选中所有名称的开头是“eMule”,结尾是“0.49c”的:^emule 0.49c$
选中所有名称中带有“eMule 0.49c”的(必须是“eMule 0.49c”,中间没有别的字符,不能是“eMule fake 0.49c”),需要转义:"emule 0.49c"
大小选择器帮您根据文件大小选择文件。