当前位置: 首页 >> 欧美电影 >> 异形大战铁血战士[中文字幕].Alien.vs.Predator.2004.UNRATED.1080p.BluRay.REMUX.AVC.DTS-HD.MA.5.1-FGT 30.84GB >> 正文

异形大战铁血战士[中文字幕].Alien.vs.Predator.2004.UNRATED.1080p.BluRay.REMUX.AVC.DTS-HD.MA.5.1-FGT 30.84GB

2022年04月19日 23:05:32     电影发布:来源于网络     电影分类:欧美电影     评论(0)    

异形大战铁血战士[中文字幕].Alien.vs.Predator.2004.UNRATED.1080p.BluRay.REMUX.AVC.DTS HD.MA.5.1 FGT 30.84GB  欧美电影  第1张

◎译 名 异形大战铁血战士 / 异兽战(港) / 异形战场(台) / 异形大战捕食者

◎片 名 AVP: Alien vs. Predator

◎年 代 2004

◎产 地 美国 / 德国 / 捷克 / 英国

◎类 别 动作 / 科幻 / 惊悚

◎语 言 英语 / 意大利语

◎上映日期 2004-08-13(美国)

◎IMDb链接 https://www.imdb.com/title/tt0370263/

◎豆瓣评分 6.9/10 (58708人评价)

◎豆瓣链接 https://movie.douban.com/subject/1308769/

◎片 长 101分钟

◎导 演 保罗·安德森 Paul W.S. Anderson (id:1031921)

◎编 剧 丹·欧班农 Dan O'Bannon (id:1027500)

罗纳德·舒塞特 Ronald Shusett (id:1297534)

吉姆·托马斯 Jim Thomas (id:1299146)

约翰·托马斯 John Thomas (id:1299151)

保罗·安德森 Paul W.S. Anderson (id:1031921)

◎演 员 桑娜·莱瑟 Sanaa Lathan (id:1049584)

雷欧·波瓦 Raoul Bova (id:1022742)

兰斯·亨利克森 Lance Henriksen (id:1048140)

艾文·布莱纳 Ewen Bremner (id:1004679)

科林·萨蒙 Colin Salmon (id:1314721)

汤米·弗拉纳根 Tommy Flanagan (id:1081424)

约瑟夫·雷耶 Joseph Rye (id:1375469)

阿加特·德拉·波拉耶 Agathe De La Boulaye (id:1354031)

卡尔斯腾·诺尔加拉德 Carsten Norgaard (id:1316318)

山姆·特劳顿 Sam Troughton (id:1317957)

彼得·雅克尔 Petr Jákl (id:1178697)

克瑞恩·比尤 Kieran Bew (id:1188457)

约瑟夫·巴德拉玛 Joseph Balderrama (id:1400929)

阿德里安·布薛特 Adrian Bouchet (id:1319199)

卡丽玛·阿德贝 Karima Adebibe (id:1005284)

亚历克·吉利斯 Alec Gillis (id:1284878)

汤姆·伍德鲁夫 Tom Woodruff Jr. (id:1301250)

伊恩·怀特 Ian Whyte (id:1183951)

Mike Richardson Mike Richardson (id:1312524)

马修·斯蒂尔曼 Matthew Stillman (id:1029083)

戈登·卡罗尔 Gordon Carroll (id:1005923)

沃尔特·希尔 Walter Hill (id:1014030)

约翰·戴维斯 John Davis (id:1281912)

大卫·吉勒 David Giler (id:1284863)

Thierry Potok Thierry Potok (id:1307445)

Thomas M. Hammel Thomas M. Hammel (id:1285918)

哈洛德·克卢瑟 Harald Kloser (id:1009834)

Alexander Berner Alexander Berner (id:1278486)

Suzanne Smith Suzanne Smith (id:1302905)

Adam O'Neill Adam O'Neill (id:1293430)

Ray Chan Ray Chan (id:1280437)

玛加莉·圭达希 Magali Guidasci (id:1285618)

Linda Dvorakova Linda Dvorakova (id:1187179)

莱斯利·拉蒙特·费舍 Lesley Lamont-Fisher (id:1104120)

马克·凯奥耶 Mark Coulier (id:1281364)

Philip Seeger Philip Seeger (id:1205858)

西蒙·伊曼纽尔 Simon Emanuel (id:1008402)

Edward Brett Edward Brett (id:1073951)

贝瑞特·奈鲁利 Bharat Nalluri (id:1292903)

Adrian De Wet Adrian De Wet (id:1282098)

查里·亨利 Charley Henley (id:1286430)

苏珊·詹杜 Suzanne Jandu (id:1287580)

Vít Komrzy Vít Komrzy (id:1288857)

克雷格·林 Craig Lyn (id:1290512)

Laurent Cordier Laurent Cordier (id:1281281)

Ryan Cook Ryan Cook (id:1281201)

约翰·布鲁诺 John Bruno (id:1279507)

Niall Flinn Niall Flinn (id:1216633)

史蒂芬·莫萨·库里 Steven Moussa Khoury (id:1216767)

Geoff Pedder Geoff Pedder (id:1216848)

马丁·德雷克 Martyn Drake (id:1223541)

布莱恩·克里格斯曼 Brian Krijgsman (id:1225742)

克里斯托夫·申科 Christoph Schinko (id:1225763)

克里斯托弗·利尔蒙斯 Christopher Learmonth (id:1226056)

Dimitri Bakalov Dimitri Bakalov (id:1277744)

Rich Thorne Rich Thorne (id:1299226)

Richard Van Den Bergh Richard Van Den Bergh (id:1299831)

克里斯汀·王 Christine Wong (id:1304145)

亚历克斯·伍特克 Alex Wuttke (id:1304968)

伊万·莫兰 Ivan Moran (id:1305218)

朱塞佩·泰格利亚维尼 Giuseppe Tagliavini (id:1305296)

Jean-Claude Deguara Jean-Claude Deguara (id:1305891)

罗宾·霍兰德尔 Robin Hollander (id:1306882)

Philippe Leprince Philippe Leprince (id:1307038)

Christoph Ammann Christoph Ammann (id:1307678)

Christoph Unger Christoph Unger (id:1303778)

Ben Thompson Ben Thompson (id:1303137)

Angie Wills Angie Wills (id:1301026)

Kate Windibank Kate Windibank (id:1301071)

Arthur Windus Arthur Windus (id:1301078)

Victor Wade Victor Wade (id:1302191)

Jelena Stojanovic Jelena Stojanovic (id:1302270)

杰西卡·诺曼 Jessica Norman (id:1302291)

Jolene McCaffrey Jolene McCaffrey (id:1302479)

Ben Shepherd Ben Shepherd (id:1303135)

Rafael Morant Rafael Morant (id:1310138)

西蒙·伊曼纽尔 Simon Emanuel (id:1008402)

Graham Riddell Graham Riddell (id:1140036)

Jiri Husak Jiri Husak (id:1111376)

安德烈·布瑞扎德 Andre Brizard (id:1075072)

皮特·汉森 Pete Hanson (id:1102387)

约翰·霍格沃德 Jan Hogevold (id:1101499)

加文·格雷厄姆 Gavin Graham (id:1096772)

Julian Gnass Julian Gnass (id:1093276)

Caine Dickinson Caine Dickinson (id:1086992)

Paul Brannan Paul Brannan (id:1070657)

安德鲁·洛克利 Andrew Lockley (id:1046541)

Ian Differ Ian Differ (id:1034491)

塔拉·沃克 Tara Walker (id:1004232)

Chris Trice Chris Trice (id:1157920)

Balázs Harmati Balázs Harmati (id:1191575)

马丁·R·戴维森 Martin R. Davison (id:1188384)

Balazs Kiss Balazs Kiss (id:1191653)

加里·马歇尔 Gary Marshall (id:1213505)

吉姆·斯帝尔 Jim Steel (id:1196446)

丹妮尔·纳达尔 Danielle Nadal (id:1203187)

Ga?l Seydoux Ga?l Seydoux (id:1191537)

◎简 介

2004年,专事搜寻矿藏的PS-12号卫星在南极洲14区探测到不明热源,并发现这里有未知文明的遗迹存在。为了抢在他人之前探明真相,PS-12所属公司老板查尔斯·比绍普·韦兰德(兰斯·亨里特森 Lance Henriksen 饰)随即召集格瑞米·米勒(埃文·布莱姆纳 Ewen Bremner 饰)、艾莉莎·伍兹(桑娜·莱瑟 Sanaa Lathan 饰)等一众科学精英组成探险队,朝着人类从未践足的布维岛挺进。

探险队下到地下2000公尺的地洞内,杂糅了各种文明的遗迹令他们目瞪口呆。更令探险队想不到的是,在他们之外来自外星的铁血战士也盯上了这里。他们将和埋藏于此的异形进行宿命的决斗,弱小的人类探险队被迫卷入其中……

  1. Video

  2. ID : 1

  3. ID in the original source medium : 4113 (0x1011)

  4. Format : AVC

  5. Format/Info : Advanced Video Codec

  6. Format profile : [email protected]

  7. Format settings : CABAC / 4 Ref Frames

  8. Format settings, CABAC : Yes

  9. Format settings, Reference frames : 4 frames

  10. Codec ID : V_MPEG4/ISO/AVC

  11. Duration : 1 h 48 min

  12. Bit rate mode : Variable

  13. Bit rate : 31.9 Mb/s

  14. Maximum bit rate : 34.3 Mb/s

  15. Width : 1 920 pixels

  16. Height : 1 080 pixels

  17. Display aspect ratio : 16:9

  18. Frame rate mode : Constant

  19. Frame rate : 23.976 (24000/1001/53354) FPS

  20. Color space : YUV

  21. Chroma subsampling : 4:2:0

  22. Bit depth : 8 bits

  23. Scan type : Progressive

  24. Bits/(Pixel*Frame) : 0.643

  25. Stream size : 24.2 GiB (79%)

  26. Language : English

  27. Default : No

  28. Forced : No

  29. Color range : Limited

  30. Color primaries : BT.709

  31. Transfer characteristics : BT.709

  32. Matrix coefficients : BT.709

  33. Original source medium : Blu-ray


  34. Audio #1

  35. ID : 2

  36. ID in the original source medium : 4352 (0x1100)

  37. Format : DTS XLL

  38. Format/Info : Digital Theater Systems

  39. Commercial name : DTS-HD Master Audio

  40. Codec ID : A_DTS

  41. Duration : 1 h 48 min

  42. Bit rate mode : Variable

  43. Bit rate : 4 213 kb/s

  44. Channel(s) : 6 channels

  45. Channel layout : C L R Ls Rs LFE

  46. Sampling rate : 48.0 kHz

  47. Frame rate : 93.750 FPS (512 SPF)

  48. Bit depth : 24 bits

  49. Compression mode : Lossless

  50. Stream size : 3.20 GiB (10%)

  51. Title : DTS-HD MA 5.1

  52. Language : English

  53. Default : Yes

  54. Forced : No

  55. Original source medium : Blu-ray


  56. Audio #2

  57. ID : 3

  58. ID in the original source medium : 4353 (0x1101)

  59. Format : AC-3

  60. Format/Info : Audio Coding 3

  61. Commercial name : Dolby Digital

  62. Codec ID : A_AC3

  63. Duration : 1 h 48 min

  64. Bit rate mode : Constant

  65. Bit rate : 448 kb/s

  66. Channel(s) : 6 channels

  67. Channel layout : L R C LFE Ls Rs

  68. Sampling rate : 48.0 kHz

  69. Frame rate : 31.250 FPS (1536 SPF)

  70. Compression mode : Lossy

  71. Stream size : 348 MiB (1%)

  72. Title : DD 5.1

  73. Language : Portuguese

  74. Service kind : Complete Main

  75. Default : No

  76. Forced : No

  77. Original source medium : Blu-ray


  78. Audio #3

  79. ID : 4

  80. ID in the original source medium : 4354 (0x1102)

  81. Format : AC-3

  82. Format/Info : Audio Coding 3

  83. Commercial name : Dolby Digital

  84. Codec ID : A_AC3

  85. Duration : 1 h 48 min

  86. Bit rate mode : Constant

  87. Bit rate : 448 kb/s

  88. Channel(s) : 6 channels

  89. Channel layout : L R C LFE Ls Rs

  90. Sampling rate : 48.0 kHz

  91. Frame rate : 31.250 FPS (1536 SPF)

  92. Compression mode : Lossy

  93. Stream size : 348 MiB (1%)

  94. Title : DD 5.1

  95. Language : Spanish

  96. Service kind : Complete Main

  97. Default : No

  98. Forced : No

  99. Original source medium : Blu-ray


  100. Audio #4

  101. ID : 5

  102. ID in the original source medium : 4355 (0x1103)

  103. Format : DTS

  104. Format/Info : Digital Theater Systems

  105. Codec ID : A_DTS

  106. Duration : 1 h 48 min

  107. Bit rate mode : Constant

  108. Bit rate : 768 kb/s

  109. Channel(s) : 6 channels

  110. Channel layout : C L R Ls Rs LFE

  111. Sampling rate : 48.0 kHz

  112. Frame rate : 93.750 FPS (512 SPF)

  113. Bit depth : 24 bits

  114. Compression mode : Lossy

  115. Stream size : 597 MiB (2%)

  116. Title : DTS 5.1

  117. Language : Russian

  118. Default : No

  119. Forced : No

  120. Original source medium : Blu-ray


  121. Audio #5

  122. ID : 6

  123. ID in the original source medium : 4356 (0x1104)

  124. Format : AC-3

  125. Format/Info : Audio Coding 3

  126. Commercial name : Dolby Digital

  127. Codec ID : A_AC3

  128. Duration : 1 h 48 min

  129. Bit rate mode : Constant

  130. Bit rate : 448 kb/s

  131. Channel(s) : 6 channels

  132. Channel layout : L R C LFE Ls Rs

  133. Sampling rate : 48.0 kHz

  134. Frame rate : 31.250 FPS (1536 SPF)

  135. Compression mode : Lossy

  136. Stream size : 348 MiB (1%)

  137. Title : DD 5.1

  138. Language : Czech

  139. Service kind : Complete Main

  140. Default : No

  141. Forced : No

  142. Original source medium : Blu-ray


  143. Audio #6

  144. ID : 7

  145. ID in the original source medium : 4357 (0x1105)

  146. Format : AC-3

  147. Format/Info : Audio Coding 3

  148. Commercial name : Dolby Digital

  149. Codec ID : A_AC3

  150. Duration : 1 h 48 min

  151. Bit rate mode : Constant

  152. Bit rate : 448 kb/s

  153. Channel(s) : 6 channels

  154. Channel layout : L R C LFE Ls Rs

  155. Sampling rate : 48.0 kHz

  156. Frame rate : 31.250 FPS (1536 SPF)

  157. Compression mode : Lossy

  158. Stream size : 348 MiB (1%)

  159. Title : DD 5.1

  160. Language : Hungarian

  161. Service kind : Complete Main

  162. Default : No

  163. Forced : No

  164. Original source medium : Blu-ray


  165. Audio #7

  166. ID : 8

  167. ID in the original source medium : 4358 (0x1106)

  168. Format : AC-3

  169. Format/Info : Audio Coding 3

  170. Commercial name : Dolby Digital

  171. Codec ID : A_AC3

  172. Duration : 1 h 48 min

  173. Bit rate mode : Constant

  174. Bit rate : 448 kb/s

  175. Channel(s) : 6 channels

  176. Channel layout : L R C LFE Ls Rs

  177. Sampling rate : 48.0 kHz

  178. Frame rate : 31.250 FPS (1536 SPF)

  179. Compression mode : Lossy

  180. Stream size : 348 MiB (1%)

  181. Title : DD 5.1

  182. Language : Hindi

  183. Service kind : Complete Main

  184. Default : No

  185. Forced : No

  186. Original source medium : Blu-ray


  187. Audio #8

  188. ID : 9

  189. ID in the original source medium : 4359 (0x1107)

  190. Format : AC-3

  191. Format/Info : Audio Coding 3

  192. Commercial name : Dolby Digital

  193. Codec ID : A_AC3

  194. Duration : 1 h 48 min

  195. Bit rate mode : Constant

  196. Bit rate : 448 kb/s

  197. Channel(s) : 6 channels

  198. Channel layout : L R C LFE Ls Rs

  199. Sampling rate : 48.0 kHz

  200. Frame rate : 31.250 FPS (1536 SPF)

  201. Compression mode : Lossy

  202. Stream size : 348 MiB (1%)

  203. Title : DD 5.1

  204. Language : Polish

  205. Service kind : Complete Main

  206. Default : No

  207. Forced : No

  208. Original source medium : Blu-ray


  209. Audio #9

  210. ID : 10

  211. ID in the original source medium : 4360 (0x1108)

  212. Format : AC-3

  213. Format/Info : Audio Coding 3

  214. Commercial name : Dolby Digital

  215. Codec ID : A_AC3

  216. Duration : 1 h 48 min

  217. Bit rate mode : Constant

  218. Bit rate : 448 kb/s

  219. Channel(s) : 6 channels

  220. Channel layout : L R C LFE Ls Rs

  221. Sampling rate : 48.0 kHz

  222. Frame rate : 31.250 FPS (1536 SPF)

  223. Compression mode : Lossy

  224. Stream size : 348 MiB (1%)

  225. Title : DD 5.1

  226. Language : Thai

  227. Service kind : Complete Main

  228. Default : No

  229. Forced : No

  230. Original source medium : Blu-ray


  231. Audio #10

  232. ID : 11

  233. ID in the original source medium : 4361 (0x1109)

  234. Format : AC-3

  235. Format/Info : Audio Coding 3

  236. Commercial name : Dolby Digital

  237. Codec ID : A_AC3

  238. Duration : 1 h 48 min

  239. Bit rate mode : Constant

  240. Bit rate : 448 kb/s

  241. Channel(s) : 6 channels

  242. Channel layout : L R C LFE Ls Rs

  243. Sampling rate : 48.0 kHz

  244. Frame rate : 31.250 FPS (1536 SPF)

  245. Compression mode : Lossy

  246. Stream size : 348 MiB (1%)

  247. Title : DD 5.1

  248. Language : Turkish

  249. Service kind : Complete Main

  250. Default : No

  251. Forced : No

  252. Original source medium : Blu-ray


  253. Text #1

  254. ID : 12

  255. Format : UTF-8

  256. Codec ID : S_TEXT/UTF8

  257. Codec ID/Info : UTF-8 Plain Text

  258. Duration : 1 h 45 min

  259. Bit rate : 24 b/s

  260. Count of elements : 544

  261. Stream size : 18.7 KiB (0%)

  262. Language : English

  263. Default : No

  264. Forced : No


  265. Text #2

  266. ID : 13

  267. ID in the original source medium : 4608 (0x1200)

  268. Format : PGS

  269. Muxing mode : zlib

  270. Codec ID : S_HDMV/PGS

  271. Codec ID/Info : Picture based subtitle format used on BDs/HD-DVDs

  272. Duration : 1 h 45 min

  273. Bit rate : 15.5 kb/s

  274. Count of elements : 1100

  275. Stream size : 11.6 MiB (0%)

  276. Language : English

  277. Default : No

  278. Forced : No

  279. Original source medium : Blu-ray


  280. Text #3

  281. ID : 14

  282. ID in the original source medium : 4609 (0x1201)

  283. Format : PGS

  284. Muxing mode : zlib

  285. Codec ID : S_HDMV/PGS

  286. Codec ID/Info : Picture based subtitle format used on BDs/HD-DVDs

  287. Duration : 1 h 48 min

  288. Bit rate : 14.3 kb/s

  289. Count of elements : 1020

  290. Stream size : 11.1 MiB (0%)

  291. Language : Portuguese

  292. Default : No

  293. Forced : No

  294. Original source medium : Blu-ray


  295. Text #4

  296. ID : 15

  297. ID in the original source medium : 4610 (0x1202)

  298. Format : PGS

  299. Muxing mode : zlib

  300. Codec ID : S_HDMV/PGS

  301. Codec ID/Info : Picture based subtitle format used on BDs/HD-DVDs

  302. Duration : 1 h 48 min

  303. Bit rate : 14.6 kb/s

  304. Count of elements : 1002

  305. Stream size : 11.3 MiB (0%)

  306. Language : Russian

  307. Default : No

  308. Forced : No

  309. Original source medium : Blu-ray


  310. Text #5

  311. ID : 16

  312. ID in the original source medium : 4611 (0x1203)

  313. Format : PGS

  314. Muxing mode : zlib

  315. Codec ID : S_HDMV/PGS

  316. Codec ID/Info : Picture based subtitle format used on BDs/HD-DVDs

  317. Duration : 1 h 48 min

  318. Bit rate : 13.8 kb/s

  319. Count of elements : 1020

  320. Stream size : 10.7 MiB (0%)

  321. Language : Estonian

  322. Default : No

  323. Forced : No

  324. Original source medium : Blu-ray


  325. Text #6

  326. ID : 17

  327. ID in the original source medium : 4612 (0x1204)

  328. Format : PGS

  329. Muxing mode : zlib

  330. Codec ID : S_HDMV/PGS

  331. Codec ID/Info : Picture based subtitle format used on BDs/HD-DVDs

  332. Duration : 1 h 45 min

  333. Bit rate : 14.3 kb/s

  334. Count of elements : 1020

  335. Stream size : 10.8 MiB (0%)

  336. Language : Latvian

  337. Default : No

  338. Forced : No

  339. Original source medium : Blu-ray


  340. Text #7

  341. ID : 18

  342. ID in the original source medium : 4613 (0x1205)

  343. Format : PGS

  344. Muxing mode : zlib

  345. Codec ID : S_HDMV/PGS

  346. Codec ID/Info : Picture based subtitle format used on BDs/HD-DVDs

  347. Duration : 1 h 48 min

  348. Bit rate : 13.6 kb/s

  349. Count of elements : 1026

  350. Stream size : 10.5 MiB (0%)

  351. Language : Lithuanian

  352. Default : No

  353. Forced : No

  354. Original source medium : Blu-ray


  355. Text #8

  356. ID : 19

  357. ID in the original source medium : 4614 (0x1206)

  358. Format : PGS

  359. Muxing mode : zlib

  360. Codec ID : S_HDMV/PGS

  361. Codec ID/Info : Picture based subtitle format used on BDs/HD-DVDs

  362. Duration : 1 h 48 min

  363. Bit rate : 13.2 kb/s

  364. Count of elements : 1026

  365. Stream size : 10.2 MiB (0%)

  366. Language : Bulgarian

  367. Default : No

  368. Forced : No

  369. Original source medium : Blu-ray


  370. Text #9

  371. ID : 20

  372. ID in the original source medium : 4615 (0x1207)

  373. Format : PGS

  374. Muxing mode : zlib

  375. Codec ID : S_HDMV/PGS

  376. Codec ID/Info : Picture based subtitle format used on BDs/HD-DVDs

  377. Duration : 1 h 48 min

  378. Bit rate : 10.1 kb/s

  379. Count of elements : 1038

  380. Stream size : 7.79 MiB (0%)

  381. Language : Chinese

  382. Default : No

  383. Forced : No

  384. Original source medium : Blu-ray


  385. Text #10

  386. ID : 21

  387. ID in the original source medium : 4616 (0x1208)

  388. Format : PGS

  389. Muxing mode : zlib

  390. Codec ID : S_HDMV/PGS

  391. Codec ID/Info : Picture based subtitle format used on BDs/HD-DVDs

  392. Duration : 1 h 45 min

  393. Bit rate : 13.1 kb/s

  394. Count of elements : 1018

  395. Stream size : 9.90 MiB (0%)

  396. Language : Croatian

  397. Default : No

  398. Forced : No

  399. Original source medium : Blu-ray


  400. Text #11

  401. ID : 22

  402. ID in the original source medium : 4617 (0x1209)

  403. Format : PGS

  404. Muxing mode : zlib

  405. Codec ID : S_HDMV/PGS

  406. Codec ID/Info : Picture based subtitle format used on BDs/HD-DVDs

  407. Duration : 1 h 45 min

  408. Bit rate : 13.3 kb/s

  409. Count of elements : 1020

  410. Stream size : 10.0 MiB (0%)

  411. Language : Czech

  412. Default : No

  413. Forced : No

  414. Original source medium : Blu-ray


  415. Text #12

  416. ID : 23

  417. ID in the original source medium : 4618 (0x120A)

  418. Format : PGS

  419. Muxing mode : zlib

  420. Codec ID : S_HDMV/PGS

  421. Codec ID/Info : Picture based subtitle format used on BDs/HD-DVDs

  422. Duration : 1 h 48 min

  423. Bit rate : 7 935 b/s

  424. Count of elements : 1028

  425. Stream size : 6.14 MiB (0%)

  426. Language : Arabic

  427. Default : No

  428. Forced : No

  429. Original source medium : Blu-ray


  430. Text #13

  431. ID : 24

  432. ID in the original source medium : 4619 (0x120B)

  433. Format : PGS

  434. Muxing mode : zlib

  435. Codec ID : S_HDMV/PGS

  436. Codec ID/Info : Picture based subtitle format used on BDs/HD-DVDs

  437. Duration : 1 h 48 min

  438. Bit rate : 14.0 kb/s

  439. Count of elements : 976

  440. Stream size : 10.8 MiB (0%)

  441. Language : Greek

  442. Default : No

  443. Forced : No

  444. Original source medium : Blu-ray


  445. Text #14

  446. ID : 25

  447. ID in the original source medium : 4620 (0x120C)

  448. Format : PGS

  449. Muxing mode : zlib

  450. Codec ID : S_HDMV/PGS

  451. Codec ID/Info : Picture based subtitle format used on BDs/HD-DVDs

  452. Duration : 1 h 48 min

  453. Bit rate : 10.0 kb/s

  454. Count of elements : 1102

  455. Stream size : 7.76 MiB (0%)

  456. Language : Chinese

  457. Default : No

  458. Forced : No

  459. Original source medium : Blu-ray


  460. Text #15

  461. ID : 26

  462. ID in the original source medium : 4621 (0x120D)

  463. Format : PGS

  464. Muxing mode : zlib

  465. Codec ID : S_HDMV/PGS

  466. Codec ID/Info : Picture based subtitle format used on BDs/HD-DVDs

  467. Duration : 1 h 48 min

  468. Bit rate : 13.2 kb/s

  469. Count of elements : 998

  470. Stream size : 10.2 MiB (0%)

  471. Language : Hungarian

  472. Default : No

  473. Forced : No

  474. Original source medium : Blu-ray


  475. Text #16

  476. ID : 27

  477. ID in the original source medium : 4622 (0x120E)

  478. Format : PGS

  479. Muxing mode : zlib

  480. Codec ID : S_HDMV/PGS

  481. Codec ID/Info : Picture based subtitle format used on BDs/HD-DVDs

  482. Duration : 1 h 48 min

  483. Bit rate : 14.5 kb/s

  484. Count of elements : 1036

  485. Stream size : 11.3 MiB (0%)

  486. Language : Icelandic

  487. Default : No

  488. Forced : No

  489. Original source medium : Blu-ray


  490. Text #17

  491. ID : 28

  492. ID in the original source medium : 4623 (0x120F)

  493. Format : PGS

  494. Muxing mode : zlib

  495. Codec ID : S_HDMV/PGS

  496. Codec ID/Info : Picture based subtitle format used on BDs/HD-DVDs

  497. Duration : 1 h 48 min

  498. Bit rate : 12.6 kb/s

  499. Count of elements : 1126

  500. Stream size : 9.74 MiB (0%)

  501. Language : Hindi

  502. Default : No

  503. Forced : No

  504. Original source medium : Blu-ray


  505. Text #18

  506. ID : 29

  507. ID in the original source medium : 4624 (0x1210)

  508. Format : PGS

  509. Muxing mode : zlib

  510. Codec ID : S_HDMV/PGS

  511. Codec ID/Info : Picture based subtitle format used on BDs/HD-DVDs

  512. Duration : 1 h 48 min

  513. Bit rate : 16.1 kb/s

  514. Count of elements : 1030

  515. Stream size : 12.5 MiB (0%)

  516. Language : Indonesian

  517. Default : No

  518. Forced : No

  519. Original source medium : Blu-ray


  520. Text #19

  521. ID : 30

  522. ID in the original source medium : 4625 (0x1211)

  523. Format : PGS

  524. Muxing mode : zlib

  525. Codec ID : S_HDMV/PGS

  526. Codec ID/Info : Picture based subtitle format used on BDs/HD-DVDs

  527. Duration : 1 h 48 min

  528. Bit rate : 9 561 b/s

  529. Count of elements : 1034

  530. Stream size : 7.40 MiB (0%)

  531. Language : Hebrew

  532. Default : No

  533. Forced : No

  534. Original source medium : Blu-ray


  535. Text #20

  536. ID : 31

  537. ID in the original source medium : 4626 (0x1212)

  538. Format : PGS

  539. Muxing mode : zlib

  540. Codec ID : S_HDMV/PGS

  541. Codec ID/Info : Picture based subtitle format used on BDs/HD-DVDs

  542. Duration : 1 h 48 min

  543. Bit rate : 8 379 b/s

  544. Count of elements : 1074

  545. Stream size : 6.49 MiB (0%)

  546. Language : Korean

  547. Default : No

  548. Forced : No

  549. Original source medium : Blu-ray


  550. Text #21

  551. ID : 32

  552. ID in the original source medium : 4627 (0x1213)

  553. Format : PGS

  554. Muxing mode : zlib

  555. Codec ID : S_HDMV/PGS

  556. Codec ID/Info : Picture based subtitle format used on BDs/HD-DVDs

  557. Duration : 1 h 48 min

  558. Bit rate : 14.4 kb/s

  559. Count of elements : 1030

  560. Stream size : 11.1 MiB (0%)

  561. Language : Polish

  562. Default : No

  563. Forced : No

  564. Original source medium : Blu-ray


  565. Text #22

  566. ID : 33

  567. ID in the original source medium : 4628 (0x1214)

  568. Format : PGS

  569. Muxing mode : zlib

  570. Codec ID : S_HDMV/PGS

  571. Codec ID/Info : Picture based subtitle format used on BDs/HD-DVDs

  572. Duration : 1 h 48 min

  573. Bit rate : 15.1 kb/s

  574. Count of elements : 1028

  575. Stream size : 11.7 MiB (0%)

  576. Language : Portuguese

  577. Default : No

  578. Forced : No

  579. Original source medium : Blu-ray


  580. Text #23

  581. ID : 34

  582. ID in the original source medium : 4629 (0x1215)

  583. Format : PGS

  584. Muxing mode : zlib

  585. Codec ID : S_HDMV/PGS

  586. Codec ID/Info : Picture based subtitle format used on BDs/HD-DVDs

  587. Duration : 1 h 46 min

  588. Bit rate : 14.4 kb/s

  589. Count of elements : 1020

  590. Stream size : 11.0 MiB (0%)

  591. Language : Romanian

  592. Default : No

  593. Forced : No

  594. Original source medium : Blu-ray


  595. Text #24

  596. ID : 35

  597. ID in the original source medium : 4630 (0x1216)

  598. Format : PGS

  599. Muxing mode : zlib

  600. Codec ID : S_HDMV/PGS

  601. Codec ID/Info : Picture based subtitle format used on BDs/HD-DVDs

  602. Duration : 1 h 45 min

  603. Bit rate : 14.0 kb/s

  604. Count of elements : 1024

  605. Stream size : 10.6 MiB (0%)

  606. Language : Slovenian

  607. Default : No

  608. Forced : No

  609. Original source medium : Blu-ray


  610. Text #25

  611. ID : 36

  612. ID in the original source medium : 4631 (0x1217)

  613. Format : PGS

  614. Muxing mode : zlib

  615. Codec ID : S_HDMV/PGS

  616. Codec ID/Info : Picture based subtitle format used on BDs/HD-DVDs

  617. Duration : 1 h 48 min

  618. Bit rate : 16.8 kb/s

  619. Count of elements : 1048

  620. Stream size : 13.0 MiB (0%)

  621. Language : Tagalog

  622. Default : No

  623. Forced : No

  624. Original source medium : Blu-ray


  625. Text #26

  626. ID : 37

  627. ID in the original source medium : 4632 (0x1218)

  628. Format : PGS

  629. Muxing mode : zlib

  630. Codec ID : S_HDMV/PGS

  631. Codec ID/Info : Picture based subtitle format used on BDs/HD-DVDs

  632. Duration : 1 h 48 min

  633. Bit rate : 10.3 kb/s

  634. Count of elements : 1106

  635. Stream size : 8.01 MiB (0%)

  636. Language : Chinese

  637. Default : No

  638. Forced : No

  639. Original source medium : Blu-ray


  640. Text #27

  641. ID : 38

  642. ID in the original source medium : 4633 (0x1219)

  643. Format : PGS

  644. Muxing mode : zlib

  645. Codec ID : S_HDMV/PGS

  646. Codec ID/Info : Picture based subtitle format used on BDs/HD-DVDs

  647. Duration : 1 h 48 min

  648. Bit rate : 11.6 kb/s

  649. Count of elements : 1252

  650. Stream size : 9.01 MiB (0%)

  651. Language : Thai

  652. Default : No

  653. Forced : No

  654. Original source medium : Blu-ray


  655. Text #28

  656. ID : 39

  657. ID in the original source medium : 4634 (0x121A)

  658. Format : PGS

  659. Muxing mode : zlib

  660. Codec ID : S_HDMV/PGS

  661. Codec ID/Info : Picture based subtitle format used on BDs/HD-DVDs

  662. Duration : 1 h 48 min

  663. Bit rate : 13.8 kb/s

  664. Count of elements : 1026

  665. Stream size : 10.7 MiB (0%)

  666. Language : Turkish

  667. Default : No

  668. Forced : No

  669. Original source medium : Blu-ray


  670. Text #29

  671. ID : 40

  672. ID in the original source medium : 4637 (0x121D)

  673. Format : PGS

  674. Muxing mode : zlib

  675. Codec ID : S_HDMV/PGS

  676. Codec ID/Info : Picture based subtitle format used on BDs/HD-DVDs

  677. Duration : 1 h 48 min

  678. Bit rate : 15.1 kb/s

  679. Count of elements : 1028

  680. Stream size : 11.7 MiB (0%)

  681. Language : Spanish

  682. Default : No

  683. Forced : No

  684. Original source medium : Blu-ray


  685. Menu

  686. 00:00:00.000 : en:Chapter 01

  687. 00:02:18.346 : en:Chapter 02

  688. 00:04:06.204 : en:Chapter 03

  689. 00:08:36.140 : en:Chapter 04

  690. 00:12:59.653 : en:Chapter 05

  691. 00:15:41.607 : en:Chapter 06

  692. 00:19:06.436 : en:Chapter 07

  693. 00:23:22.109 : en:Chapter 08

  694. 00:26:21.705 : en:Chapter 09

  695. 00:28:43.888 : en:Chapter 10

  696. 00:30:39.420 : en:Chapter 11

  697. 00:33:35.805 : en:Chapter 12

  698. 00:35:48.896 : en:Chapter 13

  699. 00:41:39.955 : en:Chapter 14

  700. 00:44:34.046 : en:Chapter 15

  701. 00:49:33.011 : en:Chapter 16

  702. 00:53:54.814 : en:Chapter 17

  703. 00:57:45.378 : en:Chapter 18

  704. 01:03:10.328 : en:Chapter 19

  705. 01:05:25.922 : en:Chapter 20

  706. 01:08:36.153 : en:Chapter 21

  707. 01:11:59.648 : en:Chapter 22

  708. 01:13:36.995 : en:Chapter 23

  709. 01:15:41.703 : en:Chapter 24

  710. 01:18:50.517 : en:Chapter 25

  711. 01:21:48.612 : en:Chapter 26

  712. 01:24:44.954 : en:Chapter 27

  713. 01:28:21.546 : en:Chapter 28

  714. 01:29:41.292 : en:Chapter 29

  715. 01:33:16.591 : en:Chapter 30

  716. 01:36:01.589 : en:Chapter 31

  717. 01:36:35.623 : en:Chapter 32

复制代码

异形大战铁血战士[中文字幕].Alien.vs.Predator.2004.UNRATED.1080p.BluRay.REMUX.AVC.DTS HD.MA.5.1 FGT 30.84GB  欧美电影  第2张 异形大战铁血战士[中文字幕].Alien.vs.Predator.2004.UNRATED.1080p.BluRay.REMUX.AVC.DTS HD.MA.5.1 FGT 30.84GB  欧美电影  第3张 异形大战铁血战士[中文字幕].Alien.vs.Predator.2004.UNRATED.1080p.BluRay.REMUX.AVC.DTS HD.MA.5.1 FGT 30.84GB  欧美电影  第4张



文件下载


除非特别注明,本文『异形大战铁血战士[中文字幕].Alien.vs.Predator.2004.UNRATED.1080p.BluRay.REMUX.AVC.DTS-HD.MA.5.1-FGT 30.84GB』来源于互联网机器人自动抓取,非本站原创。 浮游电影网不对本文拥有版权,如有侵犯,请联系邮箱:fuyouu#yandex.com[#换成@]投诉。我们会在15个工作日内删除。 但烦请转载时请标明出处:“本文转载于『浮游电影网』,原文地址:https://www.fuyouu.com/21502.html

评论吧骚年!

发表你的见解   

昵称*

E-mail*(建议输入,以便收到博主回复的提示邮件)

验证码*

您可以使用eMule或eMule Mod(Windows)、aMule(Win、Linux、Mac)等软件下载eD2k链接。。
eMule收藏集(.emulecollection)文件是您选中的所有链接的列表文件。eMule可以直接下载它们。
按住SHIFT键选择可以选中多个选择框。
可用文件名和大小选择器来选择文件。
文件名选择器帮您根据文件名称或后缀来选择文件。不分大小写。
符号使用:
和:空格( )、+
不包含:-
或:|
转义:一对英文引号("");
匹配开头:^
匹配结尾:$
例如:
选中所有名称中包含有“eMule”或“0.49c”字眼,但不包含有“exe”字眼的:emule|0.49c -exe
选中所有名称的开头是“eMule”,结尾是“0.49c”的:^emule 0.49c$
选中所有名称中带有“eMule 0.49c”的(必须是“eMule 0.49c”,中间没有别的字符,不能是“eMule fake 0.49c”),需要转义:"emule 0.49c"
大小选择器帮您根据文件大小选择文件。