当前位置: 首页 >> 海外电影 >> 连环扣[中英字幕].Jalsa.2022.1080p.Amazon.WEB-DL.H264.AAC-HDBWEB 3.02GB >> 正文

连环扣[中英字幕].Jalsa.2022.1080p.Amazon.WEB-DL.H264.AAC-HDBWEB 3.02GB

2022年04月19日 23:02:43     电影发布:来源于网络     电影分类:海外电影     评论(0)    

连环扣[中英字幕].Jalsa.2022.1080p.Amazon.WEB DL.H264.AAC HDBWEB 3.02GB  海外电影  第1张

◎译 名 连环扣

◎片 名 Jalsa

◎年 代 2022

◎产 地 印度

◎类 别 剧情 / 惊悚

◎语 言 印地语

◎上映日期 2022-03-18(印度)

◎IMDb链接 https://www.imdb.com/title/tt15361028/

◎豆瓣链接 https://movie.douban.com/subject/35806880/

◎片 长 122分钟

◎编 剧 阿巴斯·达拉勒 Abbas Dalal (id:1422417)

侯赛因·达拉尔 Hussain Dalal (id:1390473)

◎演 员 马纳夫·卡尔 Manav Kaul (id:1400300)

薇迪亚·巴兰 Vidya Balan (id:1183702)

莎法莉·什提 Shefali Shetty (id:1280636)

罗希尼·翰塔伽蒂 Rohini Hattangadi (id:1094516)

Iqbal Khan Iqbal Khan (id:1005862)

阿巴斯·达拉勒 Abbas Dalal (id:1422417)

朱奈德·汗 Junaid Khan (id:1438777)

◎简 介

A hit and run of an 18 year old girl becomes the hub of a wheel that sets into motion many a spoke - a journalist , a raging mother, a cop and a system all caught in an ethical dilemma. Questions raised only to realise that truth is rarely pure and never simple.

  1. ##### MediaInfo ######

  2. General

  3. Unique ID : 195865686759605774465465380705948002701 (0x935A5BEF57BA25908B8F6FB648BDE98D)

  4. Complete name : 连环扣.Jalsa.2022.1080p.Amazon.WEB-DL.H264.AAC-OurTV.mkv

  5. Format : Matroska

  6. Format version : Version 4

  7. File size : 3.02 GiB

  8. Duration : 2 h 6 min

  9. Overall bit rate : 3 408 kb/s

  10. Movie name : Jalsa

  11. Description : A hit and run of an 18 year old girl raises many a question only to realise that truth is rarely pure and never simple.

  12. Encoded date : UTC 2022-04-09 20:16:04

  13. Writing application : mkvmerge v64.0.0 ('Willows') 64-bit

  14. Writing library : libebml v1.4.2 + libmatroska v1.6.4 / Lavf58.76.100

  15. DATE : 2022

  16. SHOW : Jalsa

  17. Video #1

  18. ID : 1

  19. Format : AVC

  20. Format/Info : Advanced Video Codec

  21. Format profile : [email protected]

  22. Format settings : CABAC / 4 Ref Frames

  23. Format settings, CABAC : Yes

  24. Format settings, Reference frames : 4 frames

  25. Codec ID : V_MPEG4/ISO/AVC

  26. Duration : 2 h 6 min

  27. Bit rate : 3 277 kb/s

  28. Width : 1 920 pixels

  29. Height : 960 pixels

  30. Display aspect ratio : 2.000

  31. Frame rate mode : Constant

  32. Frame rate : 24.000 FPS

  33. Color space : YUV

  34. Chroma subsampling : 4:2:0

  35. Bit depth : 8 bits

  36. Scan type : Progressive

  37. Bits/(Pixel*Frame) : 0.074

  38. Stream size : 2.91 GiB (96%)

  39. Writing library : AVC Coding

  40. Default : Yes

  41. Forced : No

  42. Color range : Limited

  43. Color primaries : BT.709

  44. Transfer characteristics : BT.709

  45. Matrix coefficients : BT.709

  46. VENDOR_ID : [0][0][0][0]

  47. Video #2

  48. ID : 2

  49. Format : PNG

  50. Format/Info : Portable Network Graphic

  51. Codec ID : V_MS/VFW/FOURCC / MPNG

  52. Codec ID/Info : Motion PNG

  53. Duration : 40 ms

  54. Bit rate : 142 Mb/s

  55. Width : 1 080 pixels

  56. Height : 608 pixels

  57. Display aspect ratio : 16:9

  58. Frame rate mode : Constant

  59. Frame rate : 25.000 FPS

  60. Compression mode : Lossless

  61. Bits/(Pixel*Frame) : 8.656

  62. Stream size : 694 KiB (0%)

  63. Writing library : Lavc58.134.100 png

  64. Default : No

  65. Forced : No

  66. Color range : Full

  67. Audio

  68. ID : 3

  69. Format : AAC LC

  70. Format/Info : Advanced Audio Codec Low Complexity

  71. Codec ID : A_AAC-2

  72. Duration : 2 h 6 min

  73. Bit rate : 128 kb/s

  74. Channel(s) : 2 channels

  75. Channel layout : L R

  76. Sampling rate : 48.0 kHz

  77. Frame rate : 46.875 FPS (1024 SPF)

  78. Compression mode : Lossy

  79. Stream size : 116 MiB (4%)

  80. Title : ??????

  81. Language : Hindi

  82. Default : Yes

  83. Forced : No

  84. VENDOR_ID : [0][0][0][0]

  85. Text #1

  86. ID : 4

  87. Format : UTF-8

  88. Codec ID : S_TEXT/UTF8

  89. Codec ID/Info : UTF-8 Plain Text

  90. Duration : 2 h 2 min

  91. Bit rate : 41 b/s

  92. Count of elements : 1231

  93. Stream size : 37.7 KiB (0%)

  94. Title : English

  95. Language : English

  96. Default : Yes

  97. Forced : Yes

  98. Text #2

  99. ID : 5

  100. Format : UTF-8

  101. Codec ID : S_TEXT/UTF8

  102. Codec ID/Info : UTF-8 Plain Text

  103. Duration : 2 h 2 min

  104. Bit rate : 44 b/s

  105. Count of elements : 1223

  106. Stream size : 39.8 KiB (0%)

  107. Title : Chinese Simplified

  108. Language : Chinese

  109. Default : Yes

  110. Forced : Yes

  111. Text #3

  112. ID : 6

  113. Format : UTF-8

  114. Codec ID : S_TEXT/UTF8

  115. Codec ID/Info : UTF-8 Plain Text

  116. Duration : 2 h 2 min

  117. Bit rate : 44 b/s

  118. Count of elements : 1223

  119. Stream size : 39.8 KiB (0%)

  120. Title : Chinese Traditional

  121. Language : Chinese

  122. Default : Yes

  123. Forced : Yes


复制代码



文件下载


除非特别注明,本文『连环扣[中英字幕].Jalsa.2022.1080p.Amazon.WEB-DL.H264.AAC-HDBWEB 3.02GB』来源于互联网机器人自动抓取,非本站原创。 浮游电影网不对本文拥有版权,如有侵犯,请联系邮箱:fuyouu#yandex.com[#换成@]投诉。我们会在15个工作日内删除。 但烦请转载时请标明出处:“本文转载于『浮游电影网』,原文地址:https://www.fuyouu.com/21500.html

评论吧骚年!

发表你的见解   

昵称*

E-mail*(建议输入,以便收到博主回复的提示邮件)

验证码*

您可以使用eMule或eMule Mod(Windows)、aMule(Win、Linux、Mac)等软件下载eD2k链接。。
eMule收藏集(.emulecollection)文件是您选中的所有链接的列表文件。eMule可以直接下载它们。
按住SHIFT键选择可以选中多个选择框。
可用文件名和大小选择器来选择文件。
文件名选择器帮您根据文件名称或后缀来选择文件。不分大小写。
符号使用:
和:空格( )、+
不包含:-
或:|
转义:一对英文引号("");
匹配开头:^
匹配结尾:$
例如:
选中所有名称中包含有“eMule”或“0.49c”字眼,但不包含有“exe”字眼的:emule|0.49c -exe
选中所有名称的开头是“eMule”,结尾是“0.49c”的:^emule 0.49c$
选中所有名称中带有“eMule 0.49c”的(必须是“eMule 0.49c”,中间没有别的字符,不能是“eMule fake 0.49c”),需要转义:"emule 0.49c"
大小选择器帮您根据文件大小选择文件。