当前位置: 首页 >> 国产电影 >> 英叔之古墓狂魔[国语配音/中文字幕].Ying.Shu.Zhi.Gu.Mu.Kuang.Mo.2022.2160p.WEB-DL.H265.DDP2.0-HDBWEB 2.16GB >> 正文

英叔之古墓狂魔[国语配音/中文字幕].Ying.Shu.Zhi.Gu.Mu.Kuang.Mo.2022.2160p.WEB-DL.H265.DDP2.0-HDBWEB 2.16GB

2022年04月19日 23:01:47     电影发布:来源于网络     电影分类:国产电影     评论(0)    

英叔之古墓狂魔[国语配音/中文字幕].Ying.Shu.Zhi.Gu.Mu.Kuang.Mo.2022.2160p.WEB DL.H265.DDP2.0 HDBWEB 2.16GB  国产电影  第1张

◎译 名 英叔之古墓狂魔

◎年 代 2022

◎产 地 中国大陆

◎类 别 动作 / 悬疑 / 恐怖 / 奇幻

◎语 言 汉语普通话

◎上映日期 2022-04-18(中国大陆)

◎IMDb链接 https://www.imdb.com/title//

◎豆瓣链接 https://movie.douban.com/subject/35840615/

◎简 介

清末民初,英叔师徒行医济世,除祟安魂,行至小镇郊外恰遇阴公开道大办冥婚,僵尸出没借机害人,师徒几人冒险救下棺木内的红衣美新娘,却被卷入孤坟魔僵连环杀人案,在警察厅的支持下展开紧急调查。百姓接连惨死,贪财好色的恶霸霍大有成为下一个被猎杀的目标,英叔由此推断出丧命者都与清末一桩冤案有关,开坛做法激战复仇魔僵。谜案错杂,正邪交锋,英叔一行人能否为已逝之人洗刷冤屈,还小镇太平呢?

  1. ##### MediaInfo ######

  2. General

  3. Complete name : 英叔之古墓狂魔.Ying.Shu.Zhi.Gu.Mu.Kuang.Mo.2022.2160p.WEB-DL.H265.DDP2.0-OurTV.mp4

  4. Format : MPEG-4

  5. Format profile : Base Media

  6. Codec ID : isom (isom/iso2/mp41)

  7. File size : 2.16 GiB

  8. Duration : 1 h 13 min

  9. Overall bit rate mode : Variable

  10. Overall bit rate : 4 206 kb/s

  11. Writing application : OurTV Multimedia Platform

  12. Video

  13. ID : 1

  14. Format : HEVC

  15. Format/Info : High Efficiency Video Coding

  16. Format profile : [email protected]@Main

  17. Codec ID : hev1

  18. Codec ID/Info : High Efficiency Video Coding

  19. Duration : 1 h 13 min

  20. Source duration : 1 h 13 min

  21. Bit rate : 3 816 kb/s

  22. Width : 3 840 pixels

  23. Height : 2 160 pixels

  24. Display aspect ratio : 16:9

  25. Frame rate mode : Variable

  26. Frame rate : 25.000 FPS

  27. Minimum frame rate : 24.993 FPS

  28. Maximum frame rate : 25.007 FPS

  29. Color space : YUV

  30. Chroma subsampling : 4:2:0

  31. Bit depth : 8 bits

  32. Bits/(Pixel*Frame) : 0.018

  33. Stream size : 1.96 GiB (91%)

  34. Source stream size : 1.96 GiB (91%)

  35. Color range : Limited

  36. Color primaries : BT.709

  37. Transfer characteristics : BT.709

  38. Matrix coefficients : BT.709

  39. mdhd_Duration : 4413562

  40. Codec configuration box : hvcC

  41. Audio #1

  42. ID : 2

  43. Format : E-AC-3

  44. Format/Info : Enhanced AC-3

  45. Commercial name : Dolby Digital Plus

  46. Codec ID : ec-3

  47. Duration : 1 h 13 min

  48. Bit rate mode : Constant

  49. Bit rate : 256 kb/s

  50. Channel(s) : 2 channels

  51. Channel layout : L R

  52. Sampling rate : 48.0 kHz

  53. Frame rate : 31.250 FPS (1536 SPF)

  54. Compression mode : Lossy

  55. Stream size : 135 MiB (6%)

  56. Title : 国语DDP2.0

  57. Language : Chinese

  58. Service kind : Complete Main

  59. Default : Yes

  60. Alternate group : 1

  61. Audio #2

  62. ID : 3

  63. Format : AAC LC

  64. Format/Info : Advanced Audio Codec Low Complexity

  65. Codec ID : mp4a-40-2

  66. Duration : 1 h 13 min

  67. Bit rate mode : Variable

  68. Bit rate : 125 kb/s

  69. Maximum bit rate : 128 kb/s / 128 kb/s

  70. Channel(s) : 2 channels

  71. Channel layout : L R

  72. Sampling rate : 48.0 kHz

  73. Frame rate : 46.875 FPS (1024 SPF)

  74. Compression mode : Lossy

  75. Stream size : 66.0 MiB (3%)

  76. Title : 国语AAC2.0

  77. Language : Chinese

  78. Default : No

  79. Alternate group : 1


复制代码



文件下载


除非特别注明,本文『英叔之古墓狂魔[国语配音/中文字幕].Ying.Shu.Zhi.Gu.Mu.Kuang.Mo.2022.2160p.WEB-DL.H265.DDP2.0-HDBWEB 2.16GB』来源于互联网机器人自动抓取,非本站原创。 浮游电影网不对本文拥有版权,如有侵犯,请联系邮箱:fuyouu#yandex.com[#换成@]投诉。我们会在15个工作日内删除。 但烦请转载时请标明出处:“本文转载于『浮游电影网』,原文地址:https://www.fuyouu.com/21499.html

评论吧骚年!

发表你的见解   

昵称*

E-mail*(建议输入,以便收到博主回复的提示邮件)

验证码*

您可以使用eMule或eMule Mod(Windows)、aMule(Win、Linux、Mac)等软件下载eD2k链接。。
eMule收藏集(.emulecollection)文件是您选中的所有链接的列表文件。eMule可以直接下载它们。
按住SHIFT键选择可以选中多个选择框。
可用文件名和大小选择器来选择文件。
文件名选择器帮您根据文件名称或后缀来选择文件。不分大小写。
符号使用:
和:空格( )、+
不包含:-
或:|
转义:一对英文引号("");
匹配开头:^
匹配结尾:$
例如:
选中所有名称中包含有“eMule”或“0.49c”字眼,但不包含有“exe”字眼的:emule|0.49c -exe
选中所有名称的开头是“eMule”,结尾是“0.49c”的:^emule 0.49c$
选中所有名称中带有“eMule 0.49c”的(必须是“eMule 0.49c”,中间没有别的字符,不能是“eMule fake 0.49c”),需要转义:"emule 0.49c"
大小选择器帮您根据文件大小选择文件。