当前位置: 首页 >> 国产电影 >> 爱情魔发师[国语配音/中文字幕].Magic.Barber.2015.2160p.WEB-DL.H265.DD2.0-HDBWEB 19.65GB >> 正文

爱情魔发师[国语配音/中文字幕].Magic.Barber.2015.2160p.WEB-DL.H265.DD2.0-HDBWEB 19.65GB

2022年04月19日 23:00:15     电影发布:来源于网络     电影分类:国产电影     评论(0)    

◎译 名 爱情魔发师 / 牵过你的黑发的我的手 / Magic Barber

◎年 代 2015

◎产 地 中国大陆

◎类 别 喜剧 / 爱情

◎语 言 汉语普通话

◎上映日期 2015-07-17(中国大陆)

◎IMDb链接 https://www.imdb.com/title/tt4814452/

◎豆瓣评分 3.5/10 (357人评价)

◎豆瓣链接 https://movie.douban.com/subject/26421252/

◎片 长 95分钟

◎导 演 倾海 Hai Qing (id:1349939)

◎编 剧 吴军 Jun Wu (id:1349938)

◎演 员 郑雅文 Veronique Zheng (id:1349940)

张燃 Ran Zhang (id:1326485)

朱咪咪 Mimi Chu (id:1275715)

黄一飞 Yut Fei Wong (id:1301215)

崔浩博 Haobo Cui (id:1349937)

王子轩 Zixuan Wang (id:1329789)

刘佳怡 Jiayi Liu (id:1349936)

王静博 Jingbo Wang (id:1328423)

林昕 Xin Lin (id:1399403)

◎简 介

当都市御姐雪娇遇上凤凰男潘庆,当真爱面对百般刁难的岳母。在爱和不爱间徘徊摇曳,在爱和痛苦边延续自强不息。落花有意随流水,流水无心恋落花! 可能与不可能,“to be or not to be”,永远都是年轻人和家长们浪口舌尖上的主题。

  1. ##### MediaInfo ######

  2. General

  3. Complete name : 爱情魔发师.Magic.Barber.2015.2160p.WEB-DL.H265.DD2.0-OurTV.mp4

  4. Format : MPEG-4

  5. Format profile : Base Media

  6. Codec ID : isom (isom/iso2/mp41)

  7. File size : 19.6 GiB

  8. Duration : 1 h 34 min

  9. Overall bit rate : 29.7 Mb/s

  10. Writing application : OurTV Multimedia Platform

  11. Video

  12. ID : 1

  13. Format : HEVC

  14. Format/Info : High Efficiency Video Coding

  15. Format profile : [email protected]@High

  16. Codec ID : hev1

  17. Codec ID/Info : High Efficiency Video Coding

  18. Duration : 1 h 34 min

  19. Bit rate : 29.4 Mb/s

  20. Width : 3 840 pixels

  21. Height : 2 160 pixels

  22. Display aspect ratio : 16:9

  23. Frame rate mode : Constant

  24. Frame rate : 25.000 FPS

  25. Color space : YUV

  26. Chroma subsampling : 4:2:0

  27. Bit depth : 8 bits

  28. Bits/(Pixel*Frame) : 0.142

  29. Stream size : 19.4 GiB (99%)

  30. Color range : Limited

  31. Color primaries : BT.709

  32. Transfer characteristics : BT.709

  33. Matrix coefficients : BT.709

  34. Codec configuration box : hvcC

  35. Audio

  36. ID : 2

  37. Format : AC-3

  38. Format/Info : Audio Coding 3

  39. Commercial name : Dolby Digital

  40. Codec ID : ac-3

  41. Duration : 1 h 34 min

  42. Bit rate mode : Constant

  43. Bit rate : 384 kb/s

  44. Channel(s) : 2 channels

  45. Channel layout : L R

  46. Sampling rate : 48.0 kHz

  47. Frame rate : 31.250 FPS (1536 SPF)

  48. Compression mode : Lossy

  49. Stream size : 260 MiB (1%)

  50. Service kind : Complete Main

  51. Default : Yes

  52. Alternate group : 1


复制代码



文件下载


除非特别注明,本文『爱情魔发师[国语配音/中文字幕].Magic.Barber.2015.2160p.WEB-DL.H265.DD2.0-HDBWEB 19.65GB』来源于互联网机器人自动抓取,非本站原创。 浮游电影网不对本文拥有版权,如有侵犯,请联系邮箱:fuyouu#yandex.com[#换成@]投诉。我们会在15个工作日内删除。 但烦请转载时请标明出处:“本文转载于『浮游电影网』,原文地址:https://www.fuyouu.com/21498.html

评论吧骚年!

发表你的见解   

昵称*

E-mail*(建议输入,以便收到博主回复的提示邮件)

验证码*

您可以使用eMule或eMule Mod(Windows)、aMule(Win、Linux、Mac)等软件下载eD2k链接。。
eMule收藏集(.emulecollection)文件是您选中的所有链接的列表文件。eMule可以直接下载它们。
按住SHIFT键选择可以选中多个选择框。
可用文件名和大小选择器来选择文件。
文件名选择器帮您根据文件名称或后缀来选择文件。不分大小写。
符号使用:
和:空格( )、+
不包含:-
或:|
转义:一对英文引号("");
匹配开头:^
匹配结尾:$
例如:
选中所有名称中包含有“eMule”或“0.49c”字眼,但不包含有“exe”字眼的:emule|0.49c -exe
选中所有名称的开头是“eMule”,结尾是“0.49c”的:^emule 0.49c$
选中所有名称中带有“eMule 0.49c”的(必须是“eMule 0.49c”,中间没有别的字符,不能是“eMule fake 0.49c”),需要转义:"emule 0.49c"
大小选择器帮您根据文件大小选择文件。