当前位置: 首页 >> 海外电影 >> 漆黑之海[中英字幕].Gehraiyaan.2022.1080p.Amazon.WEB-DL.H264.AAC-HDBWEB 2.76GB >> 正文

漆黑之海[中英字幕].Gehraiyaan.2022.1080p.Amazon.WEB-DL.H264.AAC-HDBWEB 2.76GB

2022年04月19日 22:58:09     电影发布:来源于网络     电影分类:海外电影     评论(0)    

漆黑之海[中英字幕].Gehraiyaan.2022.1080p.Amazon.WEB DL.H264.AAC HDBWEB 2.76GB  海外电影  第1张

◎译 名 漆黑之海

◎片 名 Gehraiyaan

◎年 代 2022

◎产 地 印度

◎类 别 剧情 / 喜剧 / 爱情

◎语 言 印地语

◎上映日期 2022-02-11(印度)

◎IMDb链接 https://www.imdb.com/title/tt10733228/

◎豆瓣链接 https://movie.douban.com/subject/35709871/

◎导 演 沙昆·巴特拉 Shakun Batra (id:1355827)

◎演 员 迪皮卡·帕度柯妮 Deepika Padukone (id:1014002)

阿南尼娅·潘迪 Ananya Panday (id:1407864)

希坦特·查杜尔韦迪 Siddhant Chaturvedi (id:1432602)

◎简 介

你是人间四月天,我是东北地三鲜。

小伙气质猛如狼,一腔热血拍胸膛。

蝙蝠再飞不是鸟,新鞋再好他不跟脚。问世间情为何物,没钱你就是废物。

天黑路滑,社会复杂,社会道路都在走,做人做事别太狗。

鬼饿敢拦路,虎饿他敢吃人,鱼饿他敢跳门,这人饿,丧尽人伦。社会树下社会坟,来生还做社会人。

  1. ##### MediaInfo ######

  2. General

  3. Unique ID : 223380184287712640363709904324696508913 (0xA80D75662B965990C38700F9A4D889F1)

  4. Complete name : 漆黑之海.Gehraiyaan.2022.1080p.Amazon.WEB-DL.H264.AAC-OurTV.mkv

  5. Format : Matroska

  6. Format version : Version 4

  7. File size : 2.76 GiB

  8. Duration : 2 h 28 min

  9. Overall bit rate : 2 672 kb/s

  10. Movie name : Gehraiyaan

  11. Description : Alisha Khanna, 30, ambitious, now finds herself at a crossroads in life. Her six year long relationship has grown monotonous, her career seems to be going nowhere. But just when she had begun to accept this reality as unchangeable, her life is usurped by the arrival of her cousin, Tia and her fiancé, Zain, with whom she bonds over a troubled past and a common wish to break from its confines.

  12. Encoded date : UTC 2022-04-09 19:37:28

  13. Writing application : mkvmerge v64.0.0 ('Willows') 64-bit

  14. Writing library : libebml v1.4.2 + libmatroska v1.6.4 / Lavf58.76.100

  15. DATE : 2022

  16. SHOW : Gehraiyaan

  17. Video #1

  18. ID : 1

  19. Format : AVC

  20. Format/Info : Advanced Video Codec

  21. Format profile : [email protected]

  22. Format settings : CABAC / 4 Ref Frames

  23. Format settings, CABAC : Yes

  24. Format settings, Reference frames : 4 frames

  25. Codec ID : V_MPEG4/ISO/AVC

  26. Duration : 2 h 28 min

  27. Bit rate : 2 348 kb/s

  28. Width : 1 920 pixels

  29. Height : 800 pixels

  30. Display aspect ratio : 2.40:1

  31. Frame rate mode : Constant

  32. Frame rate : 24.000 FPS

  33. Color space : YUV

  34. Chroma subsampling : 4:2:0

  35. Bit depth : 8 bits

  36. Scan type : Progressive

  37. Bits/(Pixel*Frame) : 0.064

  38. Stream size : 2.43 GiB (88%)

  39. Writing library : AVC Coding

  40. Default : Yes

  41. Forced : No

  42. Color range : Limited

  43. Color primaries : BT.709

  44. Transfer characteristics : BT.709

  45. Matrix coefficients : BT.709

  46. VENDOR_ID : [0][0][0][0]

  47. Video #2

  48. ID : 2

  49. Format : PNG

  50. Format/Info : Portable Network Graphic

  51. Codec ID : V_MS/VFW/FOURCC / MPNG

  52. Codec ID/Info : Motion PNG

  53. Duration : 40 ms

  54. Bit rate : 126 Mb/s

  55. Width : 1 080 pixels

  56. Height : 608 pixels

  57. Display aspect ratio : 16:9

  58. Frame rate mode : Constant

  59. Frame rate : 25.000 FPS

  60. Compression mode : Lossless

  61. Bits/(Pixel*Frame) : 7.670

  62. Stream size : 615 KiB (0%)

  63. Writing library : Lavc58.134.100 png

  64. Default : No

  65. Forced : No

  66. Color range : Full

  67. Audio #1

  68. ID : 3

  69. Format : AAC LC

  70. Format/Info : Advanced Audio Codec Low Complexity

  71. Codec ID : A_AAC-2

  72. Duration : 2 h 28 min

  73. Bit rate : 128 kb/s

  74. Channel(s) : 2 channels

  75. Channel layout : L R

  76. Sampling rate : 48.0 kHz

  77. Frame rate : 46.875 FPS (1024 SPF)

  78. Compression mode : Lossy

  79. Stream size : 135 MiB (5%)

  80. Title : English

  81. Language : English

  82. Default : Yes

  83. Forced : No

  84. VENDOR_ID : [0][0][0][0]

  85. Audio #2

  86. ID : 4

  87. Format : AAC LC

  88. Format/Info : Advanced Audio Codec Low Complexity

  89. Codec ID : A_AAC-2

  90. Duration : 2 h 28 min

  91. Bit rate : 192 kb/s

  92. Channel(s) : 2 channels

  93. Channel layout : L R

  94. Sampling rate : 48.0 kHz

  95. Frame rate : 46.875 FPS (1024 SPF)

  96. Compression mode : Lossy

  97. Stream size : 203 MiB (7%)

  98. Title : ??????

  99. Language : Hindi

  100. Default : No

  101. Forced : No

  102. VENDOR_ID : [0][0][0][0]

  103. Text #1

  104. ID : 5

  105. Format : UTF-8

  106. Codec ID : S_TEXT/UTF8

  107. Codec ID/Info : UTF-8 Plain Text

  108. Duration : 2 h 11 min

  109. Bit rate : 61 b/s

  110. Count of elements : 2084

  111. Stream size : 59.0 KiB (0%)

  112. Title : English

  113. Language : English

  114. Default : Yes

  115. Forced : Yes

  116. Text #2

  117. ID : 6

  118. Format : UTF-8

  119. Codec ID : S_TEXT/UTF8

  120. Codec ID/Info : UTF-8 Plain Text

  121. Duration : 2 h 11 min

  122. Bit rate : 64 b/s

  123. Count of elements : 2074

  124. Stream size : 61.8 KiB (0%)

  125. Title : Chinese Simplified

  126. Language : Chinese

  127. Default : Yes

  128. Forced : Yes

  129. Text #3

  130. ID : 7

  131. Format : UTF-8

  132. Codec ID : S_TEXT/UTF8

  133. Codec ID/Info : UTF-8 Plain Text

  134. Duration : 2 h 11 min

  135. Bit rate : 64 b/s

  136. Count of elements : 2074

  137. Stream size : 61.8 KiB (0%)

  138. Title : Chinese Traditional

  139. Language : Chinese

  140. Default : Yes

  141. Forced : Yes


复制代码



文件下载


除非特别注明,本文『漆黑之海[中英字幕].Gehraiyaan.2022.1080p.Amazon.WEB-DL.H264.AAC-HDBWEB 2.76GB』来源于互联网机器人自动抓取,非本站原创。 浮游电影网不对本文拥有版权,如有侵犯,请联系邮箱:fuyouu#yandex.com[#换成@]投诉。我们会在15个工作日内删除。 但烦请转载时请标明出处:“本文转载于『浮游电影网』,原文地址:https://www.fuyouu.com/21496.html

评论吧骚年!

发表你的见解   

昵称*

E-mail*(建议输入,以便收到博主回复的提示邮件)

验证码*

您可以使用eMule或eMule Mod(Windows)、aMule(Win、Linux、Mac)等软件下载eD2k链接。。
eMule收藏集(.emulecollection)文件是您选中的所有链接的列表文件。eMule可以直接下载它们。
按住SHIFT键选择可以选中多个选择框。
可用文件名和大小选择器来选择文件。
文件名选择器帮您根据文件名称或后缀来选择文件。不分大小写。
符号使用:
和:空格( )、+
不包含:-
或:|
转义:一对英文引号("");
匹配开头:^
匹配结尾:$
例如:
选中所有名称中包含有“eMule”或“0.49c”字眼,但不包含有“exe”字眼的:emule|0.49c -exe
选中所有名称的开头是“eMule”,结尾是“0.49c”的:^emule 0.49c$
选中所有名称中带有“eMule 0.49c”的(必须是“eMule 0.49c”,中间没有别的字符,不能是“eMule fake 0.49c”),需要转义:"emule 0.49c"
大小选择器帮您根据文件大小选择文件。