当前位置: 首页 >> 国产电影 >> 不老山异事[杜比视界版本][国语配音/中文字幕].Anecdotes.of.the.Longevity.hill.2022.2160p.WEB-DL.H265.DV.DDP2.0-HDBWEB 4.7 >> 正文

不老山异事[杜比视界版本][国语配音/中文字幕].Anecdotes.of.the.Longevity.hill.2022.2160p.WEB-DL.H265.DV.DDP2.0-HDBWEB 4.7

2022年04月19日 22:57:13     电影发布:来源于网络     电影分类:国产电影     评论(0)    

不老山异事[杜比视界版本][国语配音/中文字幕].Anecdotes.of.the.Longevity.hill.2022.2160p.WEB DL.H265.DV.DDP2.0 HDBWEB 4.7  国产电影  第1张

◎译 名 不老山异事 / Anecdotesof the Longevity hill

◎年 代 2022

◎产 地 中国大陆

◎类 别 悬疑 / 惊悚

◎语 言 汉语普通话

◎上映日期 2022-03-13(中国大陆)

◎IMDb链接 https://www.imdb.com/title//

◎豆瓣链接 https://movie.douban.com/subject/35790989/

◎片 长 73分钟

◎演 员 徐少强 Norman Chu (id:1048469)

◎简 介

前朝太后一世追求长生之术,后留《十二长生赋》传说于世引各方争抢。民国年间,黄庙村中李老爷一生行善却暴毙家中,头七之日,枯井生水怨鬼还魂,坊间传言其为长生之术反噬。为查真相,民间异士林道长行奇门遁甲之术,卜易经八卦之诀,不老山异事正待被揭开谜底……

  1. ##### MediaInfo ######

  2. General

  3. Complete name : 不老山异事.Anecdotes.of.the.Longevity.hill.2022.2160p.WEB-DL.H265.DV.DDP2.0-OurTV.mp4

  4. Format : MPEG-4

  5. Format profile : Base Media / Version 2

  6. Codec ID : mp42 (mp42/iso6/isom/msdh/dby1)

  7. File size : 4.73 GiB

  8. Duration : 1 h 12 min

  9. Overall bit rate mode : Variable

  10. Overall bit rate : 9 365 kb/s

  11. Encoded date : UTC 2022-04-18 09:14:22

  12. Tagged date : UTC 2022-04-18 09:14:22

  13. Video

  14. ID : 1

  15. Format : HEVC

  16. Format/Info : High Efficiency Video Coding

  17. Format profile : Main [email protected]@Main

  18. HDR format : Dolby Vision, Version 1.0, dvhe.05.06, BL+RPU

  19. Codec ID : dvhe

  20. Codec ID/Info : High Efficiency Video Coding with Dolby Vision

  21. Duration : 1 h 12 min

  22. Bit rate : 8 851 kb/s

  23. Width : 3 840 pixels

  24. Height : 1 520 pixels

  25. Original height : 1 516 pixels

  26. Display aspect ratio : 2.533

  27. Frame rate mode : Constant

  28. Frame rate : 25.000 FPS

  29. Color space : YUV

  30. Chroma subsampling : 4:2:0

  31. Bit depth : 10 bits

  32. Bits/(Pixel*Frame) : 0.061

  33. Stream size : 4.47 GiB (95%)

  34. Default : Yes

  35. Alternate group : 1

  36. Encoded date : UTC 2022-04-18 09:14:22

  37. Tagged date : UTC 2022-04-18 09:14:22

  38. Color range : Full

  39. Codec configuration box : hvcC+dvcC

  40. Audio #1

  41. ID : 2

  42. Format : E-AC-3

  43. Format/Info : Enhanced AC-3

  44. Commercial name : Dolby Digital Plus

  45. Codec ID : ac-3

  46. Duration : 1 h 12 min

  47. Bit rate mode : Constant

  48. Bit rate : 256 kb/s

  49. Channel(s) : 2 channels

  50. Channel layout : L R

  51. Sampling rate : 48.0 kHz

  52. Frame rate : 31.250 FPS (1536 SPF)

  53. Compression mode : Lossy

  54. Stream size : 132 MiB (3%)

  55. Language : Chinese

  56. Service kind : Complete Main

  57. Default : Yes

  58. Alternate group : 2

  59. Encoded date : UTC 2022-04-18 09:14:22

  60. Tagged date : UTC 2022-04-18 09:14:22

  61. Audio #2

  62. ID : 3

  63. Format : AAC LC

  64. Format/Info : Advanced Audio Codec Low Complexity

  65. Codec ID : mp4a-40-2

  66. Duration : 1 h 12 min

  67. Bit rate mode : Variable

  68. Bit rate : 253 kb/s

  69. Maximum bit rate : 259 kb/s

  70. Channel(s) : 2 channels

  71. Channel layout : L R

  72. Sampling rate : 48.0 kHz

  73. Frame rate : 46.875 FPS (1024 SPF)

  74. Compression mode : Lossy

  75. Stream size : 131 MiB (3%)

  76. Language : Chinese

  77. Default : No

  78. Alternate group : 2

  79. Encoded date : UTC 2022-04-18 09:14:22

  80. Tagged date : UTC 2022-04-18 09:14:22


复制代码


文件下载


除非特别注明,本文『不老山异事[杜比视界版本][国语配音/中文字幕].Anecdotes.of.the.Longevity.hill.2022.2160p.WEB-DL.H265.DV.DDP2.0-HDBWEB 4.7』来源于互联网机器人自动抓取,非本站原创。 浮游电影网不对本文拥有版权,如有侵犯,请联系邮箱:fuyouu#yandex.com[#换成@]投诉。我们会在15个工作日内删除。 但烦请转载时请标明出处:“本文转载于『浮游电影网』,原文地址:https://www.fuyouu.com/21495.html

评论吧骚年!

发表你的见解   

昵称*

E-mail*(建议输入,以便收到博主回复的提示邮件)

验证码*

您可以使用eMule或eMule Mod(Windows)、aMule(Win、Linux、Mac)等软件下载eD2k链接。。
eMule收藏集(.emulecollection)文件是您选中的所有链接的列表文件。eMule可以直接下载它们。
按住SHIFT键选择可以选中多个选择框。
可用文件名和大小选择器来选择文件。
文件名选择器帮您根据文件名称或后缀来选择文件。不分大小写。
符号使用:
和:空格( )、+
不包含:-
或:|
转义:一对英文引号("");
匹配开头:^
匹配结尾:$
例如:
选中所有名称中包含有“eMule”或“0.49c”字眼,但不包含有“exe”字眼的:emule|0.49c -exe
选中所有名称的开头是“eMule”,结尾是“0.49c”的:^emule 0.49c$
选中所有名称中带有“eMule 0.49c”的(必须是“eMule 0.49c”,中间没有别的字符,不能是“eMule fake 0.49c”),需要转义:"emule 0.49c"
大小选择器帮您根据文件大小选择文件。