当前位置: 首页 >> 港台电影 >> 中南海保镖[国粤多音轨/简体字幕].The.Bodyguard.from.Beijing.1994.BluRay.1080p.x265.10bit.2Audio-MiniHD 6.63GB >> 正文

中南海保镖[国粤多音轨/简体字幕].The.Bodyguard.from.Beijing.1994.BluRay.1080p.x265.10bit.2Audio-MiniHD 6.63GB

2022年04月19日 22:56:20     电影发布:来源于网络     电影分类:港台电影     评论(0)    

中南海保镖[国粤多音轨/简体字幕].The.Bodyguard.from.Beijing.1994.BluRay.1080p.x265.10bit.2Audio MiniHD 6.63GB  港台电影  第1张

◎译 名 中南海保镖 / The Bodyguard from Beijing / The Defender

◎片 名 中南海保镳

◎年 代 1994

◎产 地 中国香港

◎类 别 剧情 / 动作

◎语 言 粤语

◎上映日期 1994-07-28(中国香港)

◎IMDb链接 https://www.imdb.com/title/tt0111835/

◎豆瓣评分 7.8/10 (95015人评价)

◎豆瓣链接 https://movie.douban.com/subject/1297068/

◎片 长 93分钟

◎导 演 元奎 Corey Yuen (id:1289150)

◎编 剧 陈嘉上 Gordon Chan (id:1274245)

陈建忠 John Chan Kin-Chung (id:1280427)

◎演 员 李连杰 Jet Li (id:1025146)

钟丽缇 Christy Chung (id:1050179)

郑则仕 Kent Cheng (id:1019278)

邹兆龙 Collin Chou (id:1022821)

梁荣忠 Wing-Chung Leung (id:1315034)

黄锦江 Kam-Kong Wong (id:1275605)

元奎 Corey Yuen (id:1289150)

伍卫国 Wai-Kwok Ng (id:1275915)

Tom Konkle Tom Konkle (id:1193131)

约翰·德米塔 John DeMita (id:1081536)

Arianna Ratner Arianna Ratner (id:1138584)

Dean Scofield Dean Scofield (id:1146466)

迈克尔·索里奇 Michael Sorich (id:1157078)

基思·弗格森 Keith Ferguson (id:1170343)

秦贵宝 Kwai Po Chun (id:1417957)

江苗定 Miu Ting Kong (id:1410093)

李连杰 Jet Li (id:1025146)

朱嘉懿 Julia Chu (id:1415701)

胡伟立 Wai Lap Wu (id:1275249)

刘满棠 Moon-Tong Lau (id:1289492)

林安儿 Angie Lam (id:1038152)

莫少奇 Jason Mok (id:1292297)

陈顾方 Shirley Chan (id:1280438)

文润铃 Yun-Ling Man (id:1290093)

黎继强 Kai Keung Lai (id:1289263)

元奎 Corey Yuen (id:1289150)

江苗定 Miu Ting Kong (id:1410093)

元德 Tak Yuen (id:1287153)

黄华和 Wah Wo Wong (id:1355706)

朱威廉 William Chu (id:1356186)

黄凯森 Kaisen Huang (id:1359507)

◎简 介

香港地区一起杀人案的唯一目击证人Michelle(钟丽缇 饰)正被杀手追杀,因为其未婚夫是与大陆高层关系密切的富商,身手不凡的中国特警许正阳(李连杰 饰)便被中央委派去香港保护Michelle。

两人初接触时互看两生厌,但慢慢都发现了对方的优点并产生了感情,然而因为身 份和工作性质,许正阳尽量将感情压抑,却免不了在刻意回避时患得患失,就在两人感觉无从择决时,一个异常危险的杀手悄悄靠近了他们。

◎获奖情况 (共1项)

第14届香港电影金像奖 (1995)

最佳动作设计(提名)

  1. ##### MediaInfo ######

  2. General

  3. Unique ID : 96012811704465630598067312900094885951 (0x483B6518DD2E62ADE4081404ED4D003F)

  4. Complete name : The.Bodyguard.from.Beijing.1994.BluRay.1080p.x265.10bit.2Audio.-FRDS.mkv

  5. Format : Matroska

  6. Format version : Version 4

  7. File size : 6.63 GiB

  8. Duration : 1 h 32 min

  9. Overall bit rate : 10.3 Mb/s

  10. Encoded date : UTC 2022-04-18 14:23:25

  11. Writing application : mkvmerge v66.0.0 ('Josie') 64-bit

  12. Writing library : libebml v1.4.2 + libmatroska v1.6.4

  13. Video

  14. ID : 1

  15. Format : HEVC

  16. Format/Info : High Efficiency Video Coding

  17. Format profile : Main [email protected]@Main

  18. Codec ID : V_MPEGH/ISO/HEVC

  19. Duration : 1 h 32 min

  20. Bit rate : 9 367 kb/s

  21. Width : 1 920 pixels

  22. Height : 1 080 pixels

  23. Display aspect ratio : 16:9

  24. Frame rate mode : Constant

  25. Frame rate : 23.976 (24000/1001/53354) FPS

  26. Color space : YUV

  27. Chroma subsampling : 4:2:0

  28. Bit depth : 10 bits

  29. Bits/(Pixel*Frame) : 0.188

  30. Stream size : 6.04 GiB (91%)

  31. Writing library : x265 3.3+3-g8f8e332f1+29:[Windows][#Erg`Djh#][@Yuuki] made by @Dongfangbubai

  32. Encoding settings : rc=crf / crf=20.0000 / qcomp=0.70 / qpstep=4 / stats-write=0 / stats-read=0 / no-lossless / no-cu-lossless / aq-mode=1 / aq-strength=0.90 / cbqpoffs=-3 / crqpoffs=-3 / ipratio=1.40 / pbratio=1.30 / psy-rd=2.00 / psy-rdoq=3.00 / deblock=-1:-1 / ref=5 / limit-refs=0 / no-limit-modes / bframes=8 / b-adapt=2 / bframe-bias=0 / b-pyramid / b-intra / weightp / weightb / min-keyint=23 / max-keyint=240 / rc-lookahead=60 / gop-lookahead=0 / NTMzNTQ=uuDQuD2mJt9fsCf / scenecut=40 / hist-scenecut=0 / radl=0 / max-cu-size=32 / min-cu-size=8 / me=3 / subme=4 / merange=25 / rdoq-level=2 / rd=4 / rdpenalty=1 / dynamic-rd=0.00 / no-rd-refine / ----- / no-cutree / no-sao / no-rect / no-amp / no-open-gop / wpp / pmode / pme / no-psnr / no-ssim / nr-intra=0 / nr-inter=0 / no-constrained-intra / no-strong-intra-smoothing / max-tu-size=32 / tu-inter-depth=2 / tu-intra-depth=2 / limit-tu=0 / qg-size=32 / qpmax=69 / qpmin=0 / ----- / cpuid=533541176575 / frame-threads=6 / numa-pools=54,- / log-level=2 / input-csp=1 / input-res=1920x1080 / interlace=0 / level-idc=0 / high-tier=1 / uhd-bd=0 / no-allow-non-conformance / no-repeat-headers / no-aud / no-hrd / info / hash=0 / no-temporal-layers / lookahead-slices=0 / no-splice / no-intra-refresh / no-ssim-rd / signhide / no-tskip / max-merge=3 / temporal-mvp / no-frame-dup / no-hme / no-analyze-src-pics / no-sao-non-deblock / selective-sao=0 / no-early-skip / no-rskip / no-fast-intra / no-tskip-fast / no-splitrd-skip / zone-count=0 / no-strict-cbr / no-rc-grain / no-const-vbv / sar=0 / overscan=0 / videoformat=5 / range=0 / colorprim=2 / transfer=2 / colormatrix=2 / chromaloc=0 / display-window=0 / cll=0,0 / min-luma=0 / max-luma=1023 / log2-max-poc-lsb=8 / vui-timing-info / vui-hrd-info / slices=1 / no-opt-qp-pps / no-opt-ref-list-length-pps / no-multi-pass-opt-rps / scenecut-bias=0.05 / hist-threshold=0.01 / no-opt-cu-delta-qp / no-aq-motion / no-hdr10 / no-hdr10-opt / no-dhdr10-opt / no-idr-recovery-sei / analysis-reuse-level=0 / analysis-save-reuse-level=0 / analysis-load-reuse-level=0 / scale-factor=0 / refine-intra=0 / refine-inter=0 / refine-mv=1 / refine-ctu-distortion=0 / no-limit-sao / ctu-info=0 / no-lowpass-dct / refine-analysis-type=0 / copy-pic=1 / max-ausize-factor=1.0 / no-dynamic-refine / no-single-sei / no-hevc-aq / no-svt / no-field / qp-adaptation-range=1.00 / no-scenecut-aware-qpconformance-window-offsets / right=0 / bottom=0 / NTMzNTQ=

  33. Default : Yes

  34. Forced : No

  35. Audio #1

  36. ID : 2

  37. Format : AC-3

  38. Format/Info : Audio Coding 3

  39. Commercial name : Dolby Digital

  40. Codec ID : A_AC3

  41. Duration : 1 h 32 min

  42. Bit rate mode : Constant

  43. Bit rate : 448 kb/s

  44. Channel(s) : 2 channels

  45. Channel layout : L R

  46. Sampling rate : 48.0 kHz

  47. Frame rate : 31.250 FPS (1536 SPF)

  48. Compression mode : Lossy

  49. Delay relative to video : 300 ms

  50. Stream size : 296 MiB (4%)

  51. Title : 国语

  52. Language : Chinese

  53. Service kind : Complete Main

  54. Default : Yes

  55. Forced : No

  56. Audio #2

  57. ID : 3

  58. Format : AC-3

  59. Format/Info : Audio Coding 3

  60. Commercial name : Dolby Digital

  61. Codec ID : A_AC3

  62. Duration : 1 h 32 min

  63. Bit rate mode : Constant

  64. Bit rate : 448 kb/s

  65. Channel(s) : 2 channels

  66. Channel layout : L R

  67. Sampling rate : 48.0 kHz

  68. Frame rate : 31.250 FPS (1536 SPF)

  69. Compression mode : Lossy

  70. Stream size : 296 MiB (4%)

  71. Title : 粤语

  72. Language : Chinese

  73. Service kind : Complete Main

  74. Default : No

  75. Forced : No

  76. Text #1

  77. ID : 4

  78. Format : PGS

  79. Muxing mode : zlib

  80. Codec ID : S_HDMV/PGS

  81. Codec ID/Info : Picture based subtitle format used on BDs/HD-DVDs

  82. Duration : 1 h 26 min

  83. Bit rate : 24.8 kb/s

  84. Count of elements : 2361

  85. Stream size : 15.4 MiB (0%)

  86. Title : 国配简中

  87. Language : Chinese

  88. Default : Yes

  89. Forced : No

  90. Text #2

  91. ID : 5

  92. Format : PGS

  93. Muxing mode : zlib

  94. Codec ID : S_HDMV/PGS

  95. Codec ID/Info : Picture based subtitle format used on BDs/HD-NewHD

复制代码



文件下载


除非特别注明,本文『中南海保镖[国粤多音轨/简体字幕].The.Bodyguard.from.Beijing.1994.BluRay.1080p.x265.10bit.2Audio-MiniHD 6.63GB』来源于互联网机器人自动抓取,非本站原创。 浮游电影网不对本文拥有版权,如有侵犯,请联系邮箱:fuyouu#yandex.com[#换成@]投诉。我们会在15个工作日内删除。 但烦请转载时请标明出处:“本文转载于『浮游电影网』,原文地址:https://www.fuyouu.com/21494.html

评论吧骚年!

发表你的见解   

昵称*

E-mail*(建议输入,以便收到博主回复的提示邮件)

验证码*

您可以使用eMule或eMule Mod(Windows)、aMule(Win、Linux、Mac)等软件下载eD2k链接。。
eMule收藏集(.emulecollection)文件是您选中的所有链接的列表文件。eMule可以直接下载它们。
按住SHIFT键选择可以选中多个选择框。
可用文件名和大小选择器来选择文件。
文件名选择器帮您根据文件名称或后缀来选择文件。不分大小写。
符号使用:
和:空格( )、+
不包含:-
或:|
转义:一对英文引号("");
匹配开头:^
匹配结尾:$
例如:
选中所有名称中包含有“eMule”或“0.49c”字眼,但不包含有“exe”字眼的:emule|0.49c -exe
选中所有名称的开头是“eMule”,结尾是“0.49c”的:^emule 0.49c$
选中所有名称中带有“eMule 0.49c”的(必须是“eMule 0.49c”,中间没有别的字符,不能是“eMule fake 0.49c”),需要转义:"emule 0.49c"
大小选择器帮您根据文件大小选择文件。