当前位置: 首页 >> 港台电影 >> 妖怪都市[国语配音/中文字幕].Wizard's.Curse.1992.WEB-DL.1080p.H264.AAC-HOMEWEB 2.01GB >> 正文

妖怪都市[国语配音/中文字幕].Wizard's.Curse.1992.WEB-DL.1080p.H264.AAC-HOMEWEB 2.01GB

2022年04月19日 22:54:18     电影发布:来源于网络     电影分类:港台电影     评论(0)    

妖怪都市[国语配音/中文字幕].Wizards.Curse.1992.WEB DL.1080p.H264.AAC HOMEWEB 2.01GB  港台电影  第1张

◎译 名 妖怪都市 / 妖兽尸王 / Wizard's Curse / 雌雄僵尸

◎年 代 1992

◎产 地 中国香港

◎类 别 喜剧 / 奇幻

◎语 言 粤语

◎上映日期 1992-06-19

◎IMDb链接 https://www.imdb.com/title/tt0105868/

◎豆瓣评分 6.4/10 (4644人评价)

◎豆瓣链接 https://movie.douban.com/subject/1302033/

◎片 长 93分钟

◎导 演 袁祥仁 Cheung-Yan Yuen (id:1301574)

◎编 剧 王晶 Jing Wong (id:1274331)

◎演 员 林正英 Ching-Ying Lam (id:1016823)

陈雅伦 Ellen Chan (id:1005623)

张国强 Kwok Keung Cheung (id:1274568)

徐曼华 Man Wah Tsui (id:1335969)

周比利 Billy Chow (id:1050501)

胡枫 Fung Woo (id:1313733)

曹查理 Charlie Cho (id:1275320)

朱咪咪 Mimi Chu (id:1275715)

袁祥仁 Cheung-Yan Yuen (id:1301574)

罗维 Wei Lo (id:1328734)

伍国健 Kwok-kin Ng (id:1418713)

冯国辉 Rankie Fung (id:1418359)

王晶 Jing Wong (id:1274331)

罗维 Wei Lo (id:1328734)

邹义训 Yixun Chow (id:1426899)

谷轩昭 Huan-Chiu Ku (id:1289063)

◎简 介

香港道士林正(林正英 饰)远赴泰国,施法帮助泰国警方制服了雌雄降头大盗金莎与乃密(周比利 饰),岂料两人的尸体被其师父盗走并炼成强大的阴阳同体尸,且阴阳尸只要获得出生于十灵时的女性便可以成为无敌的至强魔尸。林正返回香港后开始为担任实习医生的女儿林小婷(陈雅伦 饰)的交友问题头疼,施法令觊觎小婷的色狼男医生原形毕露。与此同时,阴阳尸来到香港向林正寻仇,林正师兄被害,不敌阴阳尸的林氏父女选择报警,警探大B(张国强 饰)与林小婷有嫌隙,于是趁机数落父女二人,随林小婷至现场勘查的大B在阴阳尸攻击下一败涂地。林氏一家和大B苦思降服阴阳尸之法,而出生于十灵时的小婷与大B其实就是战胜阴阳尸最强大的武器……

  1. ##### MediaInfo ######

  2. General

  3. Complete name : Wizard's Curse 1992 WEB-DL 1080p H264 AAC-Dave.mp4

  4. Format : MPEG-4

  5. Format profile : Base Media

  6. Codec ID : isom (isom/iso2/avc1/mp41)

  7. File size : 2.01 GiB

  8. Duration : 1 h 26 min

  9. Overall bit rate mode : Variable

  10. Overall bit rate : 3 326 kb/s

  11. Writing application : Lavf59.16.100

  12. Video

  13. ID : 1

  14. Format : AVC

  15. Format/Info : Advanced Video Codec

  16. Format profile : [email protected]

  17. Format settings : CABAC / 4 Ref Frames

  18. Format settings, CABAC : Yes

  19. Format settings, Reference frames : 4 frames

  20. Codec ID : avc1

  21. Codec ID/Info : Advanced Video Coding

  22. Duration : 1 h 26 min

  23. Source duration : 1 h 26 min

  24. Bit rate : 2 930 kb/s

  25. Maximum bit rate : 3 067 kb/s

  26. Width : 1 920 pixels

  27. Height : 1 080 pixels

  28. Display aspect ratio : 16:9

  29. Frame rate mode : Constant

  30. Frame rate : 25.000 FPS

  31. Color space : YUV

  32. Chroma subsampling : 4:2:0

  33. Bit depth : 8 bits

  34. Scan type : Progressive

  35. Bits/(Pixel*Frame) : 0.057

  36. Stream size : 1.77 GiB (88%)

  37. Source stream size : 1.85 GiB (92%)

  38. Color range : Limited

  39. Color primaries : BT.709

  40. Transfer characteristics : BT.709

  41. Matrix coefficients : BT.709

  42. Codec configuration box : avcC

  43. Audio

  44. ID : 2

  45. Format : AAC LC

  46. Format/Info : Advanced Audio Codec Low Complexity

  47. Codec ID : mp4a-40-2

  48. Duration : 1 h 26 min

  49. Bit rate mode : Variable

  50. Bit rate : 256 kb/s / 256 kb/s

  51. Channel(s) : 2 channels

  52. Channel layout : L R

  53. Sampling rate : 44.1 kHz

  54. Frame rate : 43.066 FPS (1024 SPF)

  55. Compression mode : Lossy

  56. Stream size : 157 MiB (8%)

  57. Default : Yes

  58. Alternate group : 1


复制代码



文件下载


除非特别注明,本文『妖怪都市[国语配音/中文字幕].Wizard's.Curse.1992.WEB-DL.1080p.H264.AAC-HOMEWEB 2.01GB』来源于互联网机器人自动抓取,非本站原创。 浮游电影网不对本文拥有版权,如有侵犯,请联系邮箱:fuyouu#yandex.com[#换成@]投诉。我们会在15个工作日内删除。 但烦请转载时请标明出处:“本文转载于『浮游电影网』,原文地址:https://www.fuyouu.com/21492.html

评论吧骚年!

发表你的见解   

昵称*

E-mail*(建议输入,以便收到博主回复的提示邮件)

验证码*

您可以使用eMule或eMule Mod(Windows)、aMule(Win、Linux、Mac)等软件下载eD2k链接。。
eMule收藏集(.emulecollection)文件是您选中的所有链接的列表文件。eMule可以直接下载它们。
按住SHIFT键选择可以选中多个选择框。
可用文件名和大小选择器来选择文件。
文件名选择器帮您根据文件名称或后缀来选择文件。不分大小写。
符号使用:
和:空格( )、+
不包含:-
或:|
转义:一对英文引号("");
匹配开头:^
匹配结尾:$
例如:
选中所有名称中包含有“eMule”或“0.49c”字眼,但不包含有“exe”字眼的:emule|0.49c -exe
选中所有名称的开头是“eMule”,结尾是“0.49c”的:^emule 0.49c$
选中所有名称中带有“eMule 0.49c”的(必须是“eMule 0.49c”,中间没有别的字符,不能是“eMule fake 0.49c”),需要转义:"emule 0.49c"
大小选择器帮您根据文件大小选择文件。