当前位置: 首页 >> 海外电影 >> 蓝白红三部曲之蓝[简英字幕].Three.Colors.Blue.1993.2160p.HDR.UHD.BluRay.DTS-HD.MA.5.1.x265-10bit-ENTHD 15.74GB >> 正文

蓝白红三部曲之蓝[简英字幕].Three.Colors.Blue.1993.2160p.HDR.UHD.BluRay.DTS-HD.MA.5.1.x265-10bit-ENTHD 15.74GB

2022年04月19日 22:51:30     电影发布:来源于网络     电影分类:海外电影     评论(0)    

蓝白红三部曲之蓝[简英字幕].Three.Colors.Blue.1993.2160p.HDR.UHD.BluRay.DTS HD.MA.5.1.x265 10bit ENTHD 15.74GB  海外电影  第1张

◎译 名 蓝白红三部曲之蓝 / 蓝 / 蓝色情挑(台) / 三色之蓝色篇 / 三色:蓝 / 蓝色 / Three Colors: Blue

◎片 名 Trois couleurs: Bleu

◎年 代 1993

◎产 地 法国 / 波兰 / 瑞士

◎类 别 剧情 / 爱情 / 音乐

◎语 言 法语 / 波兰语 / 罗马尼亚语

◎上映日期 1993-09-08(法国) / 1993-10-10(波兰)

◎IMDb链接 https://www.imdb.com/title/tt0108394/

◎豆瓣评分 8.5/10 (118645人评价)

◎豆瓣链接 https://movie.douban.com/subject/1292048/

◎片 长 98分钟

◎导 演 克日什托夫·基耶斯洛夫斯基 Krzysztof Kie?lowski (id:1054428)

◎编 剧 克日什托夫·基耶斯洛夫斯基 Krzysztof Kie?lowski (id:1054428)

克日什托夫·皮耶谢维奇 Krzysztof Piesiewicz (id:1041968)

阿格涅丝卡·霍兰 Agnieszka Holland (id:1036838)

爱德华·布罗夫斯基 Edward Zebrowski (id:1024299)

斯拉沃米尔·埃迪扎克 Slawomir Idziak (id:1007231)

◎演 员 朱丽叶·比诺什 Juliette Binoche (id:1016677)

贝努特·里格恩特 Beno?t Régent (id:1025589)

弗罗伦斯·派梅尔 Florence Pernel (id:1012664)

夏洛特·韦里 Charlotte Véry (id:1316061)

海伦·文森特 Hélène Vincent (id:1050911)

菲利普·沃特 Philippe Volter (id:1163760)

克洛德·迪内通 Claude Duneton (id:1365724)

休格·奎斯特 Hugues Quester (id:1025604)

埃玛妞·丽娃 Emmanuelle Riva (id:1032702)

弗洛伦斯·维尼翁 Florence Vignon (id:1327851)

亚采克·奥斯塔斯泽斯基 Jacek Ostaszewski (id:1384140)

扬·特雷古埃特 Yann Trégou?t (id:1149157)

阿兰·奥利维尔 Alain Ollivier (id:1131540)

朱莉·德尔佩 Julie Delpy (id:1036420)

泽比纽·扎马洲斯基 Zbigniew Zamachowski (id:1012653)

马兰·卡尔米兹 Marin Karmitz (id:1028962)

泽贝纽·普瑞斯纳 Zbigniew Preisner (id:1045562)

斯拉沃米尔·埃迪扎克 Slawomir Idziak (id:1007231)

Jacques Witta Jacques Witta (id:1301127)

Lionel Acat Lionel Acat (id:1276774)

维珍妮·维亚德 Virginie Viard (id:1446586)

朱莉·波图赛利 Julie Bertuccelli (id:1278537)

◎简 介

这么多年来,朱莉(朱丽叶·比诺什 Juliette Binoche饰)一直默默支持丈夫的创作事业,照顾5岁的孩子,平静的生活由一场车祸打破。丈夫和女儿的过世,令刚刚在病床上醒来的朱莉大为悲痛。她曾经想一死了之,出院后又生归隐之心,她把丈夫的曲谱付之一炬,以明隔离过往的决心。人间生活对于万念俱灰的朱莉来说,已经无关紧要。

然而,现实却防不胜防地进入她的生活,让她开始思考自己对待生活的态度。同时,丈夫的朋友把丈夫留下的残稿发表在媒体上,声称要为这首曲续完。这件事意外地让朱莉得知,曲子原来跟一个女人有关。这个女人,肚中已怀有丈夫的骨肉。

朱莉终于获得了心灵的自由,有勇气迎接新的生活和新的感情,她的人生开始转变。

◎获奖情况 (共15项)

第50届威尼斯电影节 (1993)

主竞赛单元 金狮奖

└──克日什托夫·基耶斯洛夫斯基 (id:1054428)

金奥赛拉奖 最佳摄影

└──斯拉沃米尔·埃迪扎克 (id:1007231)

沃尔皮杯 最佳女演员

└──朱丽叶·比诺什 (id:1016677)

小金狮奖

└──克日什托夫·基耶斯洛夫斯基 (id:1054428)

第51届金球奖 (1994)

电影类 剧情片最佳女主角(提名)

└──朱丽叶·比诺什 (id:1016677)

电影类 最佳外语片(提名)

电影类 最佳原创配乐(提名)

└──泽贝纽·普瑞斯纳 (id:1045562)

第19届法国凯撒电影奖 (1994)

最佳影片(提名)

最佳导演(提名)

└──克日什托夫·基耶斯洛夫斯基 (id:1054428)

最佳女主角

└──朱丽叶·比诺什 (id:1016677)

最佳原创剧本(提名)

最佳摄影(提名)

└──斯拉沃米尔·埃迪扎克 (id:1007231)

最佳剪辑

└──Jacques Witta (id:1301127)

最佳原创音乐(提名)

最佳音效

  1. ##### MediaInfo ######

  2. General

  3. Unique ID : 142482213454538113671938105628990864362 (0x6B31137E23641408F6B1165777877BEA)

  4. Complete name : Three.Colors.Blue.1993.2160p.HDR.UHD.BluRay.DTS-HD.MA.5.1.x265-10bit-HDS.mkv

  5. Format : Matroska

  6. Format version : Version 4

  7. File size : 15.7 GiB

  8. Duration : 1 h 38 min

  9. Overall bit rate mode : Variable

  10. Overall bit rate : 22.9 Mb/s

  11. Movie name : Three Colors Blue 1993 2160p HDR UHD BluRay DTS-HD MA 5.1 x265-10bit-HDS

  12. Encoded date : UTC 2022-04-18 01:37:48

  13. Writing application : mkvmerge v67.0.0 ('Under Stars') 64-bit

  14. Writing library : libebml v1.4.2 + libmatroska v1.6.4

  15. Video

  16. ID : 1

  17. Format : HEVC

  18. Format/Info : High Efficiency Video Coding

  19. Format profile : Main [email protected]@High

  20. HDR format : SMPTE ST 2086, HDR10 compatible

  21. Codec ID : V_MPEGH/ISO/HEVC

  22. Duration : 1 h 38 min

  23. Bit rate : 19.6 Mb/s

  24. Width : 3 840 pixels

  25. Height : 2 072 pixels

  26. Display aspect ratio : 1.85:1

  27. Frame rate mode : Constant

  28. Frame rate : 24.000 FPS

  29. Color space : YUV

  30. Chroma subsampling : 4:2:0 (Type 2)

  31. Bit depth : 10 bits

  32. Bits/(Pixel*Frame) : 0.103

  33. Stream size : 13.5 GiB (85%)

  34. Title : @HDSky

  35. Writing library : x265 3.5+12+14-106329cbd:[Windows][GCC 10.3.0][64 bit] 10bit

  36. Encoding settings : cpuid=533541111039 / frame-threads=6 / numa-pools=32 / wpp / no-pmode / no-pme / no-psnr / no-ssim / log-level=2 / input-csp=1 / input-res=3840x2072 / interlace=0 / total-frames=141609 / level-idc=0 / high-tier=1 / uhd-bd=0 / ref=4 / no-allow-non-conformance / repeat-headers / annexb / aud / no-eob / no-eos / hrd / info / hash=0 / no-temporal-layers / open-gop / min-keyint=1 / keyint=480 / gop-lookahead=0 / bframes=6 / b-adapt=2 / b-pyramid / bframe-bias=0 / rc-lookahead=60 / lookahead-slices=8 / NTMzNTQ=uuDQuD2mJt9fsCf / scenecut=40 / no-hist-scenecut / radl=0 / no-splice / no-intra-refresh / ctu=32 / min-cu-size=8 / no-rect / no-amp / max-tu-size=32 / tu-inter-depth=1 / tu-intra-depth=1 / limit-tu=0 / rdoq-level=0 / dynamic-rd=0.00 / no-ssim-rd / signhide / no-tskip / nr-intra=0 / nr-inter=0 / no-constrained-intra / strong-intra-smoothing / max-merge=3 / limit-refs=1 / no-limit-modes / me=3 / subme=5 / merange=24 / temporal-mvp / no-frame-dup / no-hme / weightp / weightb / no-analyze-src-pics / deblock=0:0 / sao / no-sao-non-deblock / rd=3 / selective-sao=4 / early-skip / rskip / no-fast-intra / no-tskip-fast / no-cu-lossless / b-intra / no-splitrd-skip / rdpenalty=0 / psy-rd=2.00 / psy-rdoq=0.00 / no-rd-refine / no-lossless / cbqpoffs=-2 / crqpoffs=-2 / rc=crf / crf=26.5 / qcomp=0.65 / qpstep=4 / stats-write=0 / stats-read=0 / vbv-maxrate=160000 / vbv-bufsize=160000 / vbv-init=0.9 / min-vbv-fullness=50.0 / max-vbv-fullness=80.0 / crf-max=0.0 / crf-min=0.0 / ipratio=1.40 / pbratio=1.30 / aq-mode=2 / aq-strength=0.90 / no-cutree / zone-count=0 / no-strict-cbr / qg-size=8 / no-rc-grain / qpmax=69 / qpmin=0 / no-const-vbv / sar=0 / overscan=0 / videoformat=5 / range=0 / colorprim=9 / transfer=16 / colormatrix=9 / chromaloc=1 / chromaloc-top=2 / chromaloc-bottom=2 / display-window=0 / master-display=G(13250,34500)B(7500,3000)R(34000,16000)WP(15635,16450)L(10000000,1) / cll=0,0 / min-luma=0 / max-luma=1023 / log2-max-poc-lsb=8 / vui-timing-info / vui-hrd-info / slices=1 / no-opt-qp-pps / no-opt-ref-list-length-pps / no-multi-pass-opt-rps / scenecut-bias=0.05 / hist-threshold=0.03 / no-opt-cu-delta-qp / no-aq-motion / hdr10 / no-hdr10-opt / no-dhdr10-opt / no-idr-recovery-sei / analysis-reuse-level=0 / analysis-save-reuse-level=0 / analysis-load-reuse-level=0 / scale-factor=0 / refine-intra=0 / refine-inter=0 / refine-mv=1 / refine-ctu-distortion=0 / no-limit-sao / ctu-info=0 / no-lowpass-dct / refine-analysis-type=0 / copy-pic=1 / max-ausize-factor=1.0 / no-dynamic-refine / no-single-sei / no-hevc-aq / no-svt / no-field / qp-adaptation-range=1.00 / scenecut-aware-qp=0 / conformance-window-right-offset=0 / conformance-window-bottom-offset=0 / decoder-max-rate=0 / no-vbv-live-multi-pass

  37. Default : Yes

  38. Forced : No

  39. Color range : Limited

  40. Color primaries : BT.2020

  41. Transfer characteristics : PQ

  42. Matrix coefficients : BT.2020 non-constant

  43. Mastering display color primaries : Display P3

  44. Mastering display luminance : min: 0.0001 cd/m2, max: 1000 cd/m2

  45. Audio

  46. ID : 2

  47. Format : DTS XLL

  48. Format/Info : Digital Theater Systems

  49. Commercial name : DTS-HD Master Audio

  50. Codec ID : A_DTS

  51. Duration : 1 h 38 min

  52. Bit rate mode : Variable

  53. Bit rate : 3 304 kb/s

  54. Channel(s) : 6 channels

  55. Channel layout : C L R Ls Rs LFE

  56. Sampling rate : 48.0 kHz

  57. Frame rate : 93.750 FPS (512 SPF)

  58. Bit depth : 24 bits

  59. Compression mode : Lossless

  60. Stream size : 2.27 GiB (14%)

  61. Title : French

  62. Language : French

  63. Default : Yes

  64. Forced : No

  65. Text #1

  66. ID : 3

  67. Format : PGS

  68. Muxing mode : zlib

  69. Codec ID : S_HDMV/PGS

  70. Codec ID/Info : Picture based subtitle format used on BDs/HD-DVDs

  71. Duration : 1 h 37 min

  72. Bit rate : 14.2 kb/s

  73. Count of elements : 1170

  74. Stream size : 9.86 MiB (0%)

  75. Title : ENG

  76. Language : English

  77. Default : Yes

  78. Forced : No

  79. Text #2

  80. ID : 4

  81. Format : PGS

  82. Muxing mode : zlib

  83. Codec ID : S_HDMV/PGS

  84. Codec ID/Info : Picture based subtitle format used on BDs/HD-DVDs

  85. Duration : 1 h 32 min

  86. Bit rate : 13.6 kb/s

  87. Count of elements : 1138

  88. Stream size : 8.99 MiB (0%)

  89. Title : CHS

  90. Language : Chinese

  91. Default : Yes

  92. Forced : No

  93. Text #3

  94. ID : 5

  95. Format : PGS

  96. Muxing mode : zlib

  97. Codec ID : S_HDMV/PGS

  98. Codec ID/Info : Picture based subtitle format used on BDs/HD-NewHD

复制代码



文件下载


除非特别注明,本文『蓝白红三部曲之蓝[简英字幕].Three.Colors.Blue.1993.2160p.HDR.UHD.BluRay.DTS-HD.MA.5.1.x265-10bit-ENTHD 15.74GB』来源于互联网机器人自动抓取,非本站原创。 浮游电影网不对本文拥有版权,如有侵犯,请联系邮箱:fuyouu#yandex.com[#换成@]投诉。我们会在15个工作日内删除。 但烦请转载时请标明出处:“本文转载于『浮游电影网』,原文地址:https://www.fuyouu.com/21489.html

评论吧骚年!

发表你的见解   

昵称*

E-mail*(建议输入,以便收到博主回复的提示邮件)

验证码*

您可以使用eMule或eMule Mod(Windows)、aMule(Win、Linux、Mac)等软件下载eD2k链接。。
eMule收藏集(.emulecollection)文件是您选中的所有链接的列表文件。eMule可以直接下载它们。
按住SHIFT键选择可以选中多个选择框。
可用文件名和大小选择器来选择文件。
文件名选择器帮您根据文件名称或后缀来选择文件。不分大小写。
符号使用:
和:空格( )、+
不包含:-
或:|
转义:一对英文引号("");
匹配开头:^
匹配结尾:$
例如:
选中所有名称中包含有“eMule”或“0.49c”字眼,但不包含有“exe”字眼的:emule|0.49c -exe
选中所有名称的开头是“eMule”,结尾是“0.49c”的:^emule 0.49c$
选中所有名称中带有“eMule 0.49c”的(必须是“eMule 0.49c”,中间没有别的字符,不能是“eMule fake 0.49c”),需要转义:"emule 0.49c"
大小选择器帮您根据文件大小选择文件。