当前位置: 首页 >> 欧美电影 >> 肖申克的救赎[国英多音轨/简繁英特效字幕].The.Shawshank.Redemption.1994.2160p.HDR.UHD.BluRay.DTS-HD.MA.5.1.5Audio.x265-1 >> 正文

肖申克的救赎[国英多音轨/简繁英特效字幕].The.Shawshank.Redemption.1994.2160p.HDR.UHD.BluRay.DTS-HD.MA.5.1.5Audio.x265-1

2022年04月19日 22:49:16     电影发布:来源于网络     电影分类:欧美电影     评论(0)    

肖申克的救赎[国英多音轨/简繁英特效字幕].The.Shawshank.Redemption.1994.2160p.HDR.UHD.BluRay.DTS HD.MA.5.1.5Audio.x265 1  欧美电影  第1张

◎译 名 肖申克的救赎 / 月黑高飞(港) / 刺激1995(台) / 地狱诺言 / 铁窗岁月 / 消香克的救赎

◎片 名 The Shawshank Redemption

◎年 代 1994

◎产 地 美国

◎类 别 剧情 / 犯罪

◎语 言 英语

◎上映日期 1994-09-10(多伦多电影节) / 1994-10-14(美国)

◎IMDb链接 https://www.imdb.com/title/tt0111161/

◎豆瓣评分 9.7/10 (2592754人评价)

◎豆瓣链接 https://movie.douban.com/subject/1292052/

◎片 长 142分钟

◎导 演 弗兰克·德拉邦特 Frank Darabont (id:1047973)

◎编 剧 弗兰克·德拉邦特 Frank Darabont (id:1047973)

斯蒂芬·金 Stephen King (id:1049547)

◎演 员 蒂姆·罗宾斯 Tim Robbins (id:1054521)

摩根·弗里曼 Morgan Freeman (id:1054534)

鲍勃·冈顿 Bob Gunton (id:1041179)

威廉姆·赛德勒 William Sadler (id:1000095)

克兰西·布朗 Clancy Brown (id:1013817)

吉尔·贝罗斯 Gil Bellows (id:1010612)

马克·罗斯顿 Mark Rolston (id:1054892)

詹姆斯·惠特摩 James Whitmore (id:1027897)

杰弗里·德曼 Jeffrey DeMunn (id:1087302)

拉里·布兰登伯格 Larry Brandenburg (id:1074035)

尼尔·吉恩托利 Neil Giuntoli (id:1099030)

布赖恩·利比 Brian Libby (id:1343305)

大卫·普罗瓦尔 David Proval (id:1048222)

约瑟夫·劳格诺 Joseph Ragno (id:1343306)

祖德·塞克利拉 Jude Ciccolella (id:1315528)

保罗·麦克兰尼 Paul McCrane (id:1014040)

芮妮·布莱恩 Renee Blaine (id:1390795)

阿方索·弗里曼 Alfonso Freeman (id:1083603)

V·J·福斯特 V.J. Foster (id:1330490)

弗兰克·梅德拉诺 Frank Medrano (id:1000635)

马克·迈尔斯 Mack Miles (id:1390797)

尼尔·萨默斯 Neil Summers (id:1150160)

耐德·巴拉米 Ned Bellamy (id:1048233)

布赖恩·戴拉特 Brian Delate (id:1000721)

唐·麦克马纳斯 Don McManus (id:1333685)

丽兹·格洛策 Liz Glotzer (id:1336159)

妮基·马文 Niki Marvin (id:1291197)

托马斯·纽曼 Thomas Newman (id:1027939)

罗杰·狄金斯 Roger Deakins (id:1018197)

理查德·弗朗西斯-布鲁斯 Richard Francis-Bruce (id:1037415)

德博拉·阿奎拉 Deborah Aquila (id:1277347)

迈克尔·塞尔顿 Michael Seirton (id:1297161)

泰伦斯·马什 Terence Marsh (id:1042324)

伊丽莎白·麦克布莱德 Elizabeth McBride (id:1046248)

凯文·黑尼 Kevin Haney (id:1285956)

蒙蒂·韦斯特摩尔 Monty Westmore (id:1166673)

杰西·约翰逊 Jesse V. Johnson (id:1103525)

梅利莎·泰勒 Melissa Taylor (id:1299007)

布莱恩·亚当斯 Brian Adams (id:1452873)

汤姆·莫尔加 Tom Morga (id:1292474)

本·斯科特 Ben Scott (id:1010248)

◎简 介

一场谋杀案使银行家安迪(蒂姆?罗宾斯 Tim Robbins 饰)蒙冤入狱,谋杀妻子及其情人的指控将囚禁他终生。在肖申克监狱的首次现身就让监狱“大哥”瑞德(摩根?弗里曼 Morgan Freeman 饰)对他另眼相看。瑞德帮助他搞到一把石锤和一幅女明星海报,两人渐成患难 之交。很快,安迪在监狱里大显其才,担当监狱图书管理员,并利用自己的金融知识帮助监狱官避税,引起了典狱长的注意,被招致麾下帮助典狱长洗黑钱。偶然一次,他得知一名新入狱的小偷能够作证帮他洗脱谋杀罪。燃起一丝希望的安迪找到了典狱长,希望他能帮自己翻案。阴险伪善的狱长假装答应安迪,背后却派人杀死小偷,让他唯一能合法出狱的希望泯灭。沮丧的安迪并没有绝望,在一个电闪雷鸣的风雨夜,一场暗藏几十年的越狱计划让他自我救赎,重获自由!老朋友瑞德在他的鼓舞和帮助下,也勇敢地奔向自由。

本片获得1995年奥...

◎获奖情况 (共11项)

第67届奥斯卡金像奖 (1995)

最佳影片(提名)

└──妮基·马文 (id:1291197)

最佳男主角(提名)

└──摩根·弗里曼 (id:1054534)

最佳改编剧本(提名)

└──弗兰克·德拉邦特 (id:1047973)

最佳摄影(提名)

└──罗杰·狄金斯 (id:1018197)

最佳剪辑(提名)

└──理查德·弗朗西斯-布鲁斯 (id:1037415)

最佳音响(提名)

最佳原创配乐(提名)

└──托马斯·纽曼 (id:1027939)

第52届金球奖 (1995)

电影类 剧情片最佳男主角(提名)

└──摩根·弗里曼 (id:1054534)

电影类 最佳编剧(提名)

└──弗兰克·德拉邦特 (id:1047973)

第19届日本电影学院奖 (1996)

最佳外语片

第20届报知映画赏 (1995)

海外作品奖

└──弗兰克·德拉邦特 (id:1047973)

  1. ##### MediaInfo ######

  2. General

  3. Unique ID : 303072386863840583621921746520559372692 (0xE4019E572EB3D5019CD2F5FD96D8C994)

  4. Complete name : The.Shawshank.Redemption.1994.2160p.HDR.UHD.BluRay.DTS-HD.MA.5.1.5Audio.x265-10bit-HDS.mkv

  5. Format : Matroska

  6. Format version : Version 2

  7. File size : 23.2 GiB

  8. Duration : 2 h 22 min

  9. Overall bit rate mode : Variable

  10. Overall bit rate : 23.3 Mb/s

  11. Encoded date : UTC 2022-04-17 14:53:48

  12. Writing application : mkvmerge v42.0.0 ('Overtime') 64-bit

  13. Writing library : libebml v1.3.10 + libmatroska v1.5.2

  14. Video

  15. ID : 1

  16. Format : HEVC

  17. Format/Info : High Efficiency Video Coding

  18. Format profile : Main [email protected]@High

  19. HDR format : SMPTE ST 2086, HDR10 compatible

  20. Codec ID : V_MPEGH/ISO/HEVC

  21. Duration : 2 h 22 min

  22. Bit rate : 14.4 Mb/s

  23. Width : 3 840 pixels

  24. Height : 2 072 pixels

  25. Display aspect ratio : 1.85:1

  26. Frame rate mode : Constant

  27. Frame rate : 23.976 (24000/1001/53354) FPS

  28. Color space : YUV

  29. Chroma subsampling : 4:2:0

  30. Bit depth : 10 bits

  31. Bits/(Pixel*Frame) : 0.076

  32. Stream size : 14.4 GiB (62%)

  33. Writing library : x265 - H.265/HEVC codec

  34. Default : Yes

  35. Forced : No

  36. Color range : Limited

  37. Color primaries : BT.2020

  38. Transfer characteristics : PQ

  39. Matrix coefficients : BT.2020 non-constant

  40. Mastering display color primaries : Display P3

  41. Mastering display luminance : min: 0.0020 cd/m2, max: 1000 cd/m2

  42. Maximum Content Light Level : 739 cd/m2

  43. Maximum Frame-Average Light Level : 331 cd/m2

  44. Audio #1

  45. ID : 2

  46. Format : DTS

  47. Format/Info : Digital Theater Systems

  48. Codec ID : A_DTS

  49. Duration : 2 h 22 min

  50. Bit rate mode : Constant

  51. Bit rate : 1 509 kb/s

  52. Channel(s) : 6 channels

  53. Channel layout : C L R Ls Rs LFE

  54. Sampling rate : 48.0 kHz

  55. Frame rate : 93.750 FPS (512 SPF)

  56. Bit depth : 24 bits

  57. Compression mode : Lossy

  58. Stream size : 1.50 GiB (6%)

  59. Title : ENG

  60. Language : English

  61. Default : Yes

  62. Forced : No

  63. Audio #2

  64. ID : 3

  65. Format : MLP FBA

  66. Format/Info : Meridian Lossless Packing FBA

  67. Commercial name : Dolby TrueHD

  68. Codec ID : A_TRUEHD

  69. Duration : 2 h 22 min

  70. Bit rate mode : Variable

  71. Bit rate : 1 441 kb/s

  72. Maximum bit rate : 2 664 kb/s

  73. Channel(s) : 6 channels

  74. Channel layout : L R C LFE Ls Rs

  75. Sampling rate : 48.0 kHz

  76. Frame rate : 1 200.000 FPS (40 SPF)

  77. Compression mode : Lossless

  78. Stream size : 1.43 GiB (6%)

  79. Title : 央视次世代国语

  80. Language : Chinese

  81. Default : No

  82. Forced : No

  83. Audio #3

  84. ID : 4

  85. Format : MLP FBA

  86. Format/Info : Meridian Lossless Packing FBA

  87. Commercial name : Dolby TrueHD

  88. Codec ID : A_TRUEHD

  89. Duration : 2 h 22 min

  90. Bit rate mode : Variable

  91. Bit rate : 1 506 kb/s

  92. Maximum bit rate : 2 403 kb/s

  93. Channel(s) : 6 channels

  94. Channel layout : L R C LFE Ls Rs

  95. Sampling rate : 48.0 kHz

  96. Frame rate : 1 200.000 FPS (40 SPF)

  97. Compression mode : Lossless

  98. Stream size : 1.50 GiB (6%)

  99. Title : 六区次世代国语

  100. Language : Chinese

  101. Default : No

  102. Forced : No

  103. Audio #4

  104. ID : 5

  105. Format : MLP FBA

  106. Format/Info : Meridian Lossless Packing FBA

  107. Commercial name : Dolby TrueHD

  108. Codec ID : A_TRUEHD

  109. Duration : 2 h 22 min

  110. Bit rate mode : Variable

  111. Bit rate : 1 445 kb/s

  112. Maximum bit rate : 2 670 kb/s

  113. Channel(s) : 6 channels

  114. Channel layout : L R C LFE Ls Rs

  115. Sampling rate : 48.0 kHz

  116. Frame rate : 1 200.000 FPS (40 SPF)

  117. Compression mode : Lossless

  118. Stream size : 1.44 GiB (6%)

  119. Title : 北影次世代国语

  120. Language : Chinese

  121. Default : No

  122. Forced : No

  123. Audio #5

  124. ID : 6

  125. Format : AC-3

  126. Format/Info : Audio Coding 3

  127. Commercial name : Dolby Digital

  128. Codec ID : A_AC3

  129. Duration : 2 h 22 min

  130. Bit rate mode : Constant

  131. Bit rate : 640 kb/s

  132. Channel(s) : 6 channels

  133. Channel layout : L R C LFE Ls Rs

  134. Sampling rate : 48.0 kHz

  135. Frame rate : 31.250 FPS (1536 SPF)

  136. Compression mode : Lossy

  137. Stream size : 653 MiB (3%)

  138. Title : 原盘六区国语

  139. Language : Chinese

  140. Service kind : Complete Main

  141. Default : No

  142. Forced : No

  143. Audio #6

  144. ID : 7

  145. Format : AC-3

  146. Format/Info : Audio Coding 3

  147. Commercial name : Dolby Digital

  148. Codec ID : A_AC3

  149. Duration : 2 h 22 min

  150. Bit rate mode : Constant

  151. Bit rate : 640 kb/s

  152. Channel(s) : 6 channels

  153. Channel layout : L R C LFE Ls Rs

  154. Sampling rate : 48.0 kHz

  155. Frame rate : 31.250 FPS (1536 SPF)

  156. Compression mode : Lossy

  157. Stream size : 653 MiB (3%)

  158. Title : 央视国语

  159. Language : Chinese

  160. Service kind : Complete Main

  161. Default : No

  162. Forced : No

  163. Audio #7

  164. ID : 8

  165. Format : AC-3

  166. Format/Info : Audio Coding 3

  167. Commercial name : Dolby Digital

  168. Codec ID : A_AC3

  169. Duration : 2 h 22 min

  170. Bit rate mode : Constant

  171. Bit rate : 640 kb/s

  172. Channel(s) : 6 channels

  173. Channel layout : L R C LFE Ls Rs

  174. Sampling rate : 48.0 kHz

  175. Frame rate : 31.250 FPS (1536 SPF)

  176. Compression mode : Lossy

  177. Stream size : 653 MiB (3%)

  178. Title : 六区国语

  179. Language : Chinese

  180. Service kind : Complete Main

  181. Default : No

  182. Forced : No

  183. Audio #8

  184. ID : 9

  185. Format : AC-3

  186. Format/Info : Audio Coding 3

  187. Commercial name : Dolby Digital

  188. Codec ID : A_AC3

  189. Duration : 2 h 22 min

  190. Bit rate mode : Constant

  191. Bit rate : 640 kb/s

  192. Channel(s) : 6 channels

  193. Channel layout : L R C LFE Ls Rs

  194. Sampling rate : 48.0 kHz

  195. Frame rate : 31.250 FPS (1536 SPF)

  196. Compression mode : Lossy

  197. Stream size : 653 MiB (3%)

  198. Title : 北影国语

  199. Language : Chinese

  200. Service kind : Complete Main

  201. Default : No

  202. Forced : No

  203. Text #1

  204. ID : 10

  205. Format : PGS

  206. Muxing mode : zlib

  207. Codec ID : S_HDMV/PGS

  208. Codec ID/Info : Picture based subtitle format used on BDs/HD-DVDs

  209. Duration : 2 h 17 min

  210. Bit rate : 34.9 kb/s

  211. Count of elements : 3556

  212. Stream size : 34.3 MiB (0%)

  213. Title : ENG

  214. Language : English

  215. Default : Yes

  216. Forced : No

  217. Text #2

  218. ID : 11

  219. Format : PGS

  220. Muxing mode : zlib

  221. Codec ID : S_HDMV/PGS

  222. Codec ID/Info : Picture based subtitle format used on BDs/HD-DVDs

  223. Duration : 2 h 18 min

  224. Bit rate : 61.3 kb/s

  225. Count of elements : 5820

  226. Stream size : 60.6 MiB (0%)

  227. Title : CHS央视国配简体特效

  228. Language : Chinese

  229. Default : No

  230. Forced : No

  231. Text #3

  232. ID : 12

  233. Format : PGS

  234. Muxing mode : zlib

  235. Codec ID : S_HDMV/PGS

  236. Codec ID/Info : Picture based subtitle format used on BDs/HD-DVDs

  237. Duration : 2 h 18 min

  238. Bit rate : 60.3 kb/s

  239. Count of elements : 5799

  240. Stream size : 59.6 MiB (0%)

  241. Title : CHS六区国配简体特效

  242. Language : Chinese

  243. Default : No

  244. Forced : No

  245. Text #4

  246. ID : 13

  247. Format : PGS

  248. Muxing mode : zlib

  249. Codec ID : S_HDMV/PGS

  250. Codec ID/Info : Picture based subtitle format used on BDs/HD-DVDs

  251. Duration : 2 h 18 min

  252. Bit rate : 63.4 kb/s

  253. Count of elements : 5894

  254. Stream size : 62.7 MiB (0%)

  255. Title : CHS北影国配简体特效

  256. Language : Chinese

  257. Default : No

  258. Forced : No

  259. Text #5

  260. ID : 14

  261. Format : PGS

  262. Muxing mode : zlib

  263. Codec ID : S_HDMV/PGS

  264. Codec ID/Info : Picture based subtitle format used on BDs/HD-DVDs

  265. Duration : 2 h 18 min

  266. Bit rate : 74.4 kb/s

  267. Count of elements : 5642

  268. Stream size : 73.6 MiB (0%)

  269. Title : C&E简英双语特效

  270. Language : Chinese

  271. Default : No

  272. Forced : No

  273. Text #6

  274. ID : 15

  275. Format : PGS

  276. Muxing mode : zlib

  277. Codec ID : S_HDMV/PGS

  278. Codec ID/Info : Picture based subtitle format used on BDs/HD-DVDs

  279. Duration : 2 h 18 min

  280. Bit rate : 75.0 kb/s

  281. Count of elements : 5642

  282. Stream size : 74.2 MiB (0%)

  283. Title : T&E繁英双语特效

  284. Language : Chinese

  285. Default : No

  286. Forced : No

  287. Text #7

  288. ID : 16

  289. Format : PGS

  290. Muxing mode : zlib

  291. Codec ID : S_HDMV/PGS

  292. Codec ID/Info : Picture based subtitle format used on BDs/HD-DVDs

  293. Duration : 2 h 17 min

  294. Bit rate : 28.3 kb/s

  295. Count of elements : 3416

  296. Stream size : 27.9 MiB (0%)

  297. Title : CHT原盘繁体

  298. Language : Chinese

  299. Default : No

  300. Forced : No

  301. Text #8

  302. ID : 17

  303. Format : PGS

  304. Muxing mode : zlib

  305. Codec ID : S_HDMV/PGS

  306. Codec ID/Info : Picture based subtitle format used on BDs/HD-NewHD

复制代码



文件下载


除非特别注明,本文『肖申克的救赎[国英多音轨/简繁英特效字幕].The.Shawshank.Redemption.1994.2160p.HDR.UHD.BluRay.DTS-HD.MA.5.1.5Audio.x265-1』来源于互联网机器人自动抓取,非本站原创。 浮游电影网不对本文拥有版权,如有侵犯,请联系邮箱:fuyouu#yandex.com[#换成@]投诉。我们会在15个工作日内删除。 但烦请转载时请标明出处:“本文转载于『浮游电影网』,原文地址:https://www.fuyouu.com/21487.html

评论吧骚年!

发表你的见解   

昵称*

E-mail*(建议输入,以便收到博主回复的提示邮件)

验证码*

您可以使用eMule或eMule Mod(Windows)、aMule(Win、Linux、Mac)等软件下载eD2k链接。。
eMule收藏集(.emulecollection)文件是您选中的所有链接的列表文件。eMule可以直接下载它们。
按住SHIFT键选择可以选中多个选择框。
可用文件名和大小选择器来选择文件。
文件名选择器帮您根据文件名称或后缀来选择文件。不分大小写。
符号使用:
和:空格( )、+
不包含:-
或:|
转义:一对英文引号("");
匹配开头:^
匹配结尾:$
例如:
选中所有名称中包含有“eMule”或“0.49c”字眼,但不包含有“exe”字眼的:emule|0.49c -exe
选中所有名称的开头是“eMule”,结尾是“0.49c”的:^emule 0.49c$
选中所有名称中带有“eMule 0.49c”的(必须是“eMule 0.49c”,中间没有别的字符,不能是“eMule fake 0.49c”),需要转义:"emule 0.49c"
大小选择器帮您根据文件大小选择文件。