当前位置: 首页 >> 欧美电影 >> 人类[中文字幕].The.Humans.2021.1080p.BluRay.x264.AC3-PAGE 8.58GB >> 正文

人类[中文字幕].The.Humans.2021.1080p.BluRay.x264.AC3-PAGE 8.58GB

2022年04月19日 22:48:25     电影发布:来源于网络     电影分类:欧美电影     评论(0)    

人类[中文字幕].The.Humans.2021.1080p.BluRay.x264.AC3 PAGE 8.58GB  欧美电影  第1张

◎译 名 人类

◎片 名 The Humans

◎年 代 2021

◎产 地 美国

◎类 别 剧情 / 惊悚

◎语 言 英语

◎上映日期 2021-09-12(多伦多电影节) / 2021-11-24(美国)

◎IMDb链接 https://www.imdb.com/title/tt10023286/

◎豆瓣评分 6.8/10 (152人评价)

◎豆瓣链接 https://movie.douban.com/subject/34951045/

◎片 长 108分钟

◎导 演 斯蒂芬·卡勒姆 Stephen Karam (id:1401213)

◎编 剧 斯蒂芬·卡勒姆 Stephen Karam (id:1401213)

◎演 员 比妮·费尔德斯坦 Beanie Feldstein (id:1358086)

史蒂文·元 Steven Yeun (id:1275960)

朱恩·斯奎布 June Squibb (id:1154489)

理查德·詹金斯 Richard Jenkins (id:1048145)

艾米·舒默 Amy Schumer (id:1318507)

杰妮·霍蒂谢尔 Jayne Houdyshell (id:1386049)

安·罗斯 Ann Roth (id:1041745)

◎简 介

Set inside a pre-war duplex in downtown Manhattan, The Humans follows the course of an evening in which the Blake family gathers to celebrate Thanksgiving. As darkness falls outside the crumbling building, mysterious things start to go bump in the night and family tensions reach a boiling point

  1. ##### MediaInfo ######

  2. General

  3. Unique ID : 64242415040375189521705178327908966835 (0x3054A39AEAD7632C63C22675D7F561B3)

  4. Complete name : The.Humans.2021.1080p.BluRay.x264.AC3-PTH.mkv

  5. Format : Matroska

  6. Format version : Version 4

  7. File size : 8.58 GiB

  8. Duration : 1 h 46 min

  9. Overall bit rate : 11.5 Mb/s

  10. Movie name : The Humans [2021] 1080p BluRay - PTH

  11. Encoded date : UTC 2022-04-17 05:06:37

  12. Writing application : mkvmerge v64.0.0 ('Willows') 64-bit

  13. Writing library : libebml v1.4.2 + libmatroska v1.6.4

  14. Video

  15. ID : 1

  16. Format : AVC

  17. Format/Info : Advanced Video Codec

  18. Format profile : [email protected]

  19. Format settings : CABAC / 4 Ref Frames

  20. Format settings, CABAC : Yes

  21. Format settings, Reference frames : 4 frames

  22. Codec ID : V_MPEG4/ISO/AVC

  23. Duration : 1 h 46 min

  24. Bit rate : 10.8 Mb/s

  25. Width : 1 920 pixels

  26. Height : 1 036 pixels

  27. Display aspect ratio : 1.85:1

  28. Frame rate mode : Constant

  29. Frame rate : 23.976 (24000/1001/53354) FPS

  30. Color space : YUV

  31. Chroma subsampling : 4:2:0

  32. Bit depth : 8 bits

  33. Scan type : Progressive

  34. Bits/(Pixel*Frame) : 0.226

  35. Stream size : 8.01 GiB (93%)

  36. Writing library : x264 core 164 r3065 ae03d92

  37. Encoding settings : cabac=1 / ref=4 / deblock=1:-3:-3 / analyse=0x3:0x133 / me=umh / subme=10 / psy=1 / psy_rd=1.00:0.00 / mixed_ref=1 / me_range=32 / chroma_me=1 / trellis=2 / 8x8dct=1 / cqm=0 / deadzone=21,11 / fast_pskip=0 / chroma_qp_offset=-2 / threads=18 / lookahead_threads=4 / sliced_threads=0 / nr=0 / decimate=0 / interlaced=0 / NTMzNTQ= / bluray_compat=0 / constrained_intra=0 / bframes=16 / b_pyramid=2 / b_adapt=2 / b_bias=0 / direct=3 / weightb=1 / open_gop=0 / weightp=2 / keyint=240 / keyint_min=24 / NTMzNTQ=uuDQuD2mJt9fsCf / scenecut=40 / intra_refresh=0 / rc_lookahead=60 / rc=crf / mbtree=0 / crf=19.0 / qcomp=0.60 / qpmin=0 / qpmax=69 / qpstep=4 / vbv_maxrate=62500 / vbv_bufsize=78125 / crf_max=0.0 / nal_hrd=none / filler=0 / NTMzNTQ=LmsMAP37EqsCpk / ip_ratio=1.40 / pb_ratio=1.30 / aq=2:1.00

  38. Default : Yes

  39. Forced : No

  40. Color range : Limited

  41. Color primaries : BT.709

  42. Transfer characteristics : BT.709

  43. Matrix coefficients : BT.709

  44. Audio #1

  45. ID : 2

  46. Format : AC-3

  47. Format/Info : Audio Coding 3

  48. Commercial name : Dolby Digital

  49. Codec ID : A_AC3

  50. Duration : 1 h 46 min

  51. Bit rate mode : Constant

  52. Bit rate : 640 kb/s

  53. Channel(s) : 6 channels

  54. Channel layout : L R C LFE Ls Rs

  55. Sampling rate : 48.0 kHz

  56. Frame rate : 31.250 FPS (1536 SPF)

  57. Compression mode : Lossy

  58. Stream size : 488 MiB (6%)

  59. Language : English

  60. Service kind : Complete Main

  61. Default : Yes

  62. Forced : No

  63. Audio #2

  64. ID : 3

  65. Format : AAC LC

  66. Format/Info : Advanced Audio Codec Low Complexity

  67. Codec ID : A_AAC-2

  68. Duration : 1 h 46 min

  69. Bit rate : 96.0 kb/s

  70. Channel(s) : 2 channels

  71. Channel layout : L R

  72. Sampling rate : 48.0 kHz

  73. Frame rate : 46.875 FPS (1024 SPF)

  74. Compression mode : Lossy

  75. Delay relative to video : 9 ms

  76. Stream size : 73.2 MiB (1%)

  77. Title : Commentary by director Stephen Karam

  78. Language : English

  79. Default : No

  80. Forced : No

  81. Text #1

  82. ID : 4

  83. Format : ASS

  84. Codec ID : S_TEXT/ASS

  85. Codec ID/Info : Advanced Sub Station Alpha

  86. Duration : 1 h 46 min

  87. Bit rate : 265 b/s

  88. Count of elements : 1754

  89. Compression mode : Lossless

  90. Stream size : 207 KiB (0%)

  91. Title : chi-s&eng

  92. Language : Multiple languages

  93. Default : Yes

  94. Forced : No

  95. Text #2

  96. ID : 5

  97. Format : UTF-8

  98. Codec ID : S_TEXT/UTF8

  99. Codec ID/Info : UTF-8 Plain Text

  100. Duration : 1 h 46 min

  101. Bit rate : 84 b/s

  102. Count of elements : 1755

  103. Stream size : 65.8 KiB (0%)

  104. Title : Hard of hearing

  105. Language : English

  106. Default : No

  107. Forced : No

  108. Text #3

  109. ID : 6

  110. Format : PGS

  111. Muxing mode : zlib

  112. Codec ID : S_HDMV/PGS

  113. Codec ID/Info : Picture based subtitle format used on BDs/HD-NewHD

复制代码



文件下载


除非特别注明,本文『人类[中文字幕].The.Humans.2021.1080p.BluRay.x264.AC3-PAGE 8.58GB』来源于互联网机器人自动抓取,非本站原创。 浮游电影网不对本文拥有版权,如有侵犯,请联系邮箱:fuyouu#yandex.com[#换成@]投诉。我们会在15个工作日内删除。 但烦请转载时请标明出处:“本文转载于『浮游电影网』,原文地址:https://www.fuyouu.com/21486.html

评论吧骚年!

发表你的见解   

昵称*

E-mail*(建议输入,以便收到博主回复的提示邮件)

验证码*

您可以使用eMule或eMule Mod(Windows)、aMule(Win、Linux、Mac)等软件下载eD2k链接。。
eMule收藏集(.emulecollection)文件是您选中的所有链接的列表文件。eMule可以直接下载它们。
按住SHIFT键选择可以选中多个选择框。
可用文件名和大小选择器来选择文件。
文件名选择器帮您根据文件名称或后缀来选择文件。不分大小写。
符号使用:
和:空格( )、+
不包含:-
或:|
转义:一对英文引号("");
匹配开头:^
匹配结尾:$
例如:
选中所有名称中包含有“eMule”或“0.49c”字眼,但不包含有“exe”字眼的:emule|0.49c -exe
选中所有名称的开头是“eMule”,结尾是“0.49c”的:^emule 0.49c$
选中所有名称中带有“eMule 0.49c”的(必须是“eMule 0.49c”,中间没有别的字符,不能是“eMule fake 0.49c”),需要转义:"emule 0.49c"
大小选择器帮您根据文件大小选择文件。