当前位置: 首页 >> 港台电影 >> 飞狐外传[国语配音/中文字幕].The.Sword.of.Many.Loves.1993.WEB-DL.1080p.H264.AAC-HOMEWEB 2.47GB >> 正文

飞狐外传[国语配音/中文字幕].The.Sword.of.Many.Loves.1993.WEB-DL.1080p.H264.AAC-HOMEWEB 2.47GB

2022年04月19日 22:47:34     电影发布:来源于网络     电影分类:港台电影     评论(0)    

飞狐外传[国语配音/中文字幕].The.Sword.of.Many.Loves.1993.WEB DL.1080p.H264.AAC HOMEWEB 2.47GB  港台电影  第1张

◎译 名 飞狐外传 / The Sword of Many Loves

◎片 名 飛狐外傳

◎年 代 1993

◎产 地 中国香港

◎类 别 动作 / 爱情 / 武侠 / 古装

◎语 言 粤语

◎上映日期 1993-08-20

◎IMDb链接 https://www.imdb.com/title/tt0104246/

◎豆瓣评分 6.6/10 (4092人评价)

◎豆瓣链接 https://movie.douban.com/subject/1300204/

◎片 长 111分钟

◎导 演 潘文杰 Man Kit Poon (id:1294725)

◎编 剧 麦当雄 Johnny Mak (id:1290775)

萧若元 Stephen Siu (id:1297721)

金庸 Louis Cha (id:1019677)

李英杰 Ying Kit Lee (id:1412104)

◎演 员 黎明 Leon Lai (id:1036978)

李嘉欣 Michele Reis (id:1139540)

张敏 Sharla Cheung (id:1005297)

徐锦江 Elvis Tsui (id:1028828)

何家驹 Ka-Kui Ho (id:1286711)

苑琼丹 King-Tan Yuen (id:1274445)

麦当雄 Johnny Mak (id:1290775)

萧若元 Stephen Siu (id:1297721)

乐易玲 Virginia Lok (id:1403148)

胡伟立 Wai Lap Wu (id:1275249)

樊恭荣 Kung Wing Fan (id:1283421)

马玉成 Yuk-Sing Ma (id:1290582)

谭镇渡 Tony Tam Chun-To (id:1417488)

邹文怀 Raymond Chow (id:1016883)

◎简 介

自幼父母双亡的胡斐(黎明)随家仆平四在砖窑场隐居,为避免被人认出遭遇伏击,二人在人前总作平凡人打扮,但私下胡斐却是刻苦习武,终练成胡家刀谱。

得悉对他施过一饭之恩的钟四一家被燕南天(徐锦江)之子燕子胥逼害,胡斐出头教训了燕子胥并把他捉至北帝庙,但终被燕南天救出。胡斐尾随燕南天赶往京城准备伺机报仇时,遇上行踪飘忽的袁紫衣(张敏),被其吸引,不久两人互生好感。其后袁紫衣不幸遭人下毒瞎了双眼,为救她,胡斐向药王传人程灵素(李嘉欣)求救,却引来另一段恩爱情仇。

  1. ##### MediaInfo ######

  2. General

  3. Complete name : The Sword of Many Loves 1993 WEB-DL 1080p H264 AAC-Dave.mp4

  4. Format : MPEG-4

  5. Format profile : Base Media

  6. Codec ID : isom (isom/iso2/avc1/mp41)

  7. File size : 2.47 GiB

  8. Duration : 1 h 46 min

  9. Overall bit rate mode : Variable

  10. Overall bit rate : 3 321 kb/s

  11. Writing application : Lavf59.16.100

  12. Video

  13. ID : 1

  14. Format : AVC

  15. Format/Info : Advanced Video Codec

  16. Format profile : [email protected]

  17. Format settings : CABAC / 8 Ref Frames

  18. Format settings, CABAC : Yes

  19. Format settings, Reference frames : 8 frames

  20. Codec ID : avc1

  21. Codec ID/Info : Advanced Video Coding

  22. Duration : 1 h 46 min

  23. Source duration : 1 h 46 min

  24. Bit rate : 2 924 kb/s

  25. Maximum bit rate : 3 060 kb/s

  26. Width : 1 920 pixels

  27. Height : 1 080 pixels

  28. Display aspect ratio : 16:9

  29. Frame rate mode : Constant

  30. Frame rate : 25.000 FPS

  31. Color space : YUV

  32. Chroma subsampling : 4:2:0

  33. Bit depth : 8 bits

  34. Scan type : Progressive

  35. Bits/(Pixel*Frame) : 0.056

  36. Stream size : 2.17 GiB (88%)

  37. Source stream size : 2.27 GiB (92%)

  38. Color range : Limited

  39. Color primaries : BT.709

  40. Transfer characteristics : BT.709

  41. Matrix coefficients : BT.709

  42. Codec configuration box : avcC

  43. Audio

  44. ID : 2

  45. Format : AAC LC

  46. Format/Info : Advanced Audio Codec Low Complexity

  47. Codec ID : mp4a-40-2

  48. Duration : 1 h 46 min

  49. Bit rate mode : Variable

  50. Bit rate : 256 kb/s / 256 kb/s

  51. Channel(s) : 2 channels

  52. Channel layout : L R

  53. Sampling rate : 44.1 kHz

  54. Frame rate : 43.066 FPS (1024 SPF)

  55. Compression mode : Lossy

  56. Stream size : 193 MiB (8%)

  57. Default : Yes

  58. Alternate group : 1


复制代码



文件下载


除非特别注明,本文『飞狐外传[国语配音/中文字幕].The.Sword.of.Many.Loves.1993.WEB-DL.1080p.H264.AAC-HOMEWEB 2.47GB』来源于互联网机器人自动抓取,非本站原创。 浮游电影网不对本文拥有版权,如有侵犯,请联系邮箱:fuyouu#yandex.com[#换成@]投诉。我们会在15个工作日内删除。 但烦请转载时请标明出处:“本文转载于『浮游电影网』,原文地址:https://www.fuyouu.com/21485.html

评论吧骚年!

发表你的见解   

昵称*

E-mail*(建议输入,以便收到博主回复的提示邮件)

验证码*

您可以使用eMule或eMule Mod(Windows)、aMule(Win、Linux、Mac)等软件下载eD2k链接。。
eMule收藏集(.emulecollection)文件是您选中的所有链接的列表文件。eMule可以直接下载它们。
按住SHIFT键选择可以选中多个选择框。
可用文件名和大小选择器来选择文件。
文件名选择器帮您根据文件名称或后缀来选择文件。不分大小写。
符号使用:
和:空格( )、+
不包含:-
或:|
转义:一对英文引号("");
匹配开头:^
匹配结尾:$
例如:
选中所有名称中包含有“eMule”或“0.49c”字眼,但不包含有“exe”字眼的:emule|0.49c -exe
选中所有名称的开头是“eMule”,结尾是“0.49c”的:^emule 0.49c$
选中所有名称中带有“eMule 0.49c”的(必须是“eMule 0.49c”,中间没有别的字符,不能是“eMule fake 0.49c”),需要转义:"emule 0.49c"
大小选择器帮您根据文件大小选择文件。