当前位置: 首页 >> 国产电影 >> 鸦片战争[国语配音/中文字幕].The.Opium.War.1997.WEB-DL.1080p.H264.AAC-HOMEWEB 2.42GB >> 正文

鸦片战争[国语配音/中文字幕].The.Opium.War.1997.WEB-DL.1080p.H264.AAC-HOMEWEB 2.42GB

2022年04月19日 22:46:39     电影发布:来源于网络     电影分类:国产电影     评论(0)    

鸦片战争[国语配音/中文字幕].The.Opium.War.1997.WEB DL.1080p.H264.AAC HOMEWEB 2.42GB  国产电影  第1张

◎译 名 鸦片战争 / The Opium War

◎年 代 1997

◎产 地 中国大陆

◎类 别 剧情 / 历史 / 战争

◎语 言 汉语普通话 / 英语

◎上映日期 1997-06-09(中国大陆) / 1997-06-13(中国香港)

◎IMDb链接 https://www.imdb.com/title/tt0120538/

◎豆瓣评分 7.5/10 (6996人评价)

◎豆瓣链接 https://movie.douban.com/subject/1305366/

◎片 长 153分钟

◎导 演 谢晋 Jin Xie (id:1042500)

◎编 剧 朱苏进 Sujin Zhu (id:1275244)

倪震 Zhen Ni (id:1317000)

宗福先 Fuxian Zong (id:1332956)

麦天枢 Tin Shu Mak (id:1343080)

◎演 员 鲍国安 Guo'an Bao (id:1275205)

林连昆 Liankun Lin (id:1290005)

郎雄 Sihung Lung (id:1274507)

邵昕 Hsin Shao (id:1314201)

鲍勃·佩克 Bob Peck (id:1049877)

西蒙·威廉姆斯 Simon Williams (id:1168191)

苏民 Min Su (id:1332816)

姜华 Hua Jiang (id:1332818)

李士龙 Shilong Li (id:1356932)

爱玛·格里菲斯·马琳 Emma Griffiths Malin (id:1316989)

菲利普·杰克森 Philip Jackson (id:1019160)

刘仲元 Zhongyuan Liu (id:1313753)

葛香亭 Hsiang Ting Ko (id:1092070)

奈杰尔·达文波特 Nigel Davenport (id:1019177)

奥利弗·科顿 Oliver Cotton (id:1074098)

Debra Beaumont Debra Beaumont (id:1065069)

多米尼克·杰普科特 Dominic Jephcott (id:1106198)

Jamie Wilson Jamie Wilson (id:1175742)

吴宝文 Baowen Wu (id:1411954)

林炳坤 Bingkun Lin (id:1350348)

成志谷 Zhigu Cheng (id:1412715)

李行 Hsing Lee (id:1048761)

李宪 Xian Li (id:1412445)

许鞍华 Ann Hui (id:1053570)

金复载 Fuzai Jin (id:1287736)

黄汉琪 Lucia Hwong (id:1369445)

侯咏 Yong Hou (id:1286964)

尚勇 Yong Shang (id:1369680)

钱丽丽 Lili Qian (id:1398680)

张龙根 Longgen Zhang (id:1422242)

侯佩珍 Peizhen Hou (id:1454033)

邵瑞刚 Ruigang Shao (id:1297329)

张先春 Xianchun Zhang (id:1439644)

曹颖平 Yingping Cao (id:1435015)

沈克强 Keqiang Shen (id:1416868)

祝士彬 Shibin Zhu (id:1301726)

娜仁花 Renhua Na (id:1292855)

来启箴 Qizhen Lai (id:1289264)

王学义 Xueyi Wang (id:1300419)

◎简 介

英国源源不断的鸦片输入令道光皇帝感到江山岌岌可危,虽害怕列强,他还是下诏委派湖广总督林则徐(鲍国安)为钦差大臣前往广州禁烟。但腐败官吏与英国商人的勾结将鸦片贸易变得错综复杂,林则徐的禁烟行动从一开始就面临重重困难,英国商人一面假装听命林则徐,一面策划更大的阴谋。

道光十九年六月三日,林则徐在虎门海滩指挥销烟,百姓拍手称快。英国回国商人拿此事大做文章,装备精良的英军从珠江口直下塘沽,对华宣战。软弱无能的道光不派兵应战,反把一切怪罪到林则徐头上将他撤职,又派直隶总督琦善(林连昆)为钦差大臣前去与英方讲和,酿成历史悲剧。

◎获奖情况 (共10项)

第17届中国电影金鸡奖 (1997)

最佳故事片

最佳导演(提名)

└──谢晋 (id:1042500)

最佳编剧(提名)

最佳男配角

└──林连昆 (id:1290005)

最佳摄影

└──侯咏 (id:1286964)

最佳美术(提名)

└──邵瑞刚 (id:1297329)

最佳录音

最佳道具

最佳烟火(提名)

第21届大众电影百花奖 (1998)

最佳故事片

  1. ##### MediaInfo ######

  2. General

  3. Complete name : The Opium War 1997 WEB-DL 1080p H264 AAC-Dave.mp4

  4. Format : MPEG-4

  5. Format profile : Base Media

  6. Codec ID : isom (isom/iso2/avc1/mp41)

  7. File size : 2.42 GiB

  8. Duration : 1 h 44 min

  9. Overall bit rate mode : Variable

  10. Overall bit rate : 3 331 kb/s

  11. Writing application : Lavf59.16.100

  12. Video

  13. ID : 1

  14. Format : AVC

  15. Format/Info : Advanced Video Codec

  16. Format profile : [email protected]

  17. Format settings : CABAC / 8 Ref Frames

  18. Format settings, CABAC : Yes

  19. Format settings, Reference frames : 8 frames

  20. Codec ID : avc1

  21. Codec ID/Info : Advanced Video Coding

  22. Duration : 1 h 44 min

  23. Source duration : 1 h 44 min

  24. Bit rate : 2 934 kb/s

  25. Maximum bit rate : 3 071 kb/s

  26. Width : 1 920 pixels

  27. Height : 866 pixels

  28. Display aspect ratio : 2.2:1

  29. Frame rate mode : Constant

  30. Frame rate : 25.000 FPS

  31. Color space : YUV

  32. Chroma subsampling : 4:2:0

  33. Bit depth : 8 bits

  34. Scan type : Progressive

  35. Bits/(Pixel*Frame) : 0.071

  36. Stream size : 2.13 GiB (88%)

  37. Source stream size : 2.23 GiB (92%)

  38. Color range : Limited

  39. Color primaries : BT.709

  40. Transfer characteristics : BT.709

  41. Matrix coefficients : BT.709

  42. Codec configuration box : avcC

  43. Audio

  44. ID : 2

  45. Format : AAC LC

  46. Format/Info : Advanced Audio Codec Low Complexity

  47. Codec ID : mp4a-40-2

  48. Duration : 1 h 44 min

  49. Bit rate mode : Variable

  50. Bit rate : 256 kb/s / 256 kb/s

  51. Channel(s) : 2 channels

  52. Channel layout : L R

  53. Sampling rate : 44.1 kHz

  54. Frame rate : 43.066 FPS (1024 SPF)

  55. Compression mode : Lossy

  56. Stream size : 189 MiB (8%)

  57. Default : Yes

  58. Alternate group : 1


复制代码



文件下载


除非特别注明,本文『鸦片战争[国语配音/中文字幕].The.Opium.War.1997.WEB-DL.1080p.H264.AAC-HOMEWEB 2.42GB』来源于互联网机器人自动抓取,非本站原创。 浮游电影网不对本文拥有版权,如有侵犯,请联系邮箱:fuyouu#yandex.com[#换成@]投诉。我们会在15个工作日内删除。 但烦请转载时请标明出处:“本文转载于『浮游电影网』,原文地址:https://www.fuyouu.com/21484.html

评论吧骚年!

发表你的见解   

昵称*

E-mail*(建议输入,以便收到博主回复的提示邮件)

验证码*

您可以使用eMule或eMule Mod(Windows)、aMule(Win、Linux、Mac)等软件下载eD2k链接。。
eMule收藏集(.emulecollection)文件是您选中的所有链接的列表文件。eMule可以直接下载它们。
按住SHIFT键选择可以选中多个选择框。
可用文件名和大小选择器来选择文件。
文件名选择器帮您根据文件名称或后缀来选择文件。不分大小写。
符号使用:
和:空格( )、+
不包含:-
或:|
转义:一对英文引号("");
匹配开头:^
匹配结尾:$
例如:
选中所有名称中包含有“eMule”或“0.49c”字眼,但不包含有“exe”字眼的:emule|0.49c -exe
选中所有名称的开头是“eMule”,结尾是“0.49c”的:^emule 0.49c$
选中所有名称中带有“eMule 0.49c”的(必须是“eMule 0.49c”,中间没有别的字符,不能是“eMule fake 0.49c”),需要转义:"emule 0.49c"
大小选择器帮您根据文件大小选择文件。