当前位置: 首页 >> 港台电影 >> 绝桥智多星[国语配音/中文字幕].The.Big.Score.1990.WEB-DL.1080p.H264.AAC-HOMEWEB 2.37GB >> 正文

绝桥智多星[国语配音/中文字幕].The.Big.Score.1990.WEB-DL.1080p.H264.AAC-HOMEWEB 2.37GB

2022年04月19日 22:45:48     电影发布:来源于网络     电影分类:港台电影     评论(0)    

绝桥智多星[国语配音/中文字幕].The.Big.Score.1990.WEB DL.1080p.H264.AAC HOMEWEB 2.37GB  港台电影  第1张

◎译 名 绝桥智多星 / 龙虎大老千 / The Big Score

◎年 代 1990

◎产 地 中国香港

◎类 别 动作 / 犯罪

◎语 言 粤语

◎上映日期 1990-09-27(中国香港)

◎IMDb链接 https://www.imdb.com/title/tt0099905/

◎豆瓣评分 6.4/10 (487人评价)

◎豆瓣链接 https://movie.douban.com/subject/1298220/

◎片 长 106 分钟

◎导 演 王晶 Jing Wong (id:1274331)

◎编 剧 王晶 Jing Wong (id:1274331)

◎演 员 李修贤 Danny Lee (id:1025452)

王晶 Jing Wong (id:1274331)

王祖贤 Joey Wong (id:1166896)

龙方 Fong Lung (id:1290470)

邓萃雯 Sheren Tang (id:1160170)

简达华 Tat-Wah Gan (id:1385057)

于芷蔚 Chi-Wai Yu (id:1338927)

麦克·阿伯特 Mike Abbott (id:1055934)

黄秋生 Anthony Wong Chau-Sang (id:1050076)

王天林 Tian-lin Wang (id:1041074)

伍国健 Kwok-kin Ng (id:1418713)

王天林 Tian-lin Wang (id:1041074)

李子衡 Gigo Lee (id:1289673)

罗礼贤 Bruce Law (id:1289542)

◎简 介

龚正(李修贤 饰)是一名皇家警察,和好友马坤(黄秋生 饰)里应外合一举破获了一个势力非常强大的犯罪集团,导致集团老大王豹(龙方 饰)遭到了逮捕。然而,让警方没有想到的是,王豹派出自己的手下查明了马坤的卧底身份,不仅令他变为植物人终身残废,还残忍的杀死了他的妻子和小孩。

因为缺少关键证据,王豹被无罪释放,龚正面临停职调查的窘境,愤怒之下,龚正选择了辞职。之后,他于偶然之中结识了马坤曾经救过的一个老千(王晶 饰),两人决定联手为马坤报仇。王豹虽然凶残但是也有弱点,于是老千设下赌局,嗜赌如命的王豹果然自投罗网。

  1. ##### MediaInfo ######

  2. General

  3. Complete name : The Big Score 1990 WEB-DL 1080p H264 AAC-Dave.mp4

  4. Format : MPEG-4

  5. Format profile : Base Media

  6. Codec ID : isom (isom/iso2/avc1/mp41)

  7. File size : 2.37 GiB

  8. Duration : 1 h 41 min

  9. Overall bit rate mode : Variable

  10. Overall bit rate : 3 336 kb/s

  11. Writing application : Lavf59.16.100

  12. Video

  13. ID : 1

  14. Format : AVC

  15. Format/Info : Advanced Video Codec

  16. Format profile : [email protected]

  17. Format settings : CABAC / 4 Ref Frames

  18. Format settings, CABAC : Yes

  19. Format settings, Reference frames : 4 frames

  20. Codec ID : avc1

  21. Codec ID/Info : Advanced Video Coding

  22. Duration : 1 h 41 min

  23. Source duration : 1 h 41 min

  24. Bit rate : 2 939 kb/s

  25. Maximum bit rate : 3 076 kb/s

  26. Width : 1 920 pixels

  27. Height : 1 080 pixels

  28. Display aspect ratio : 16:9

  29. Frame rate mode : Constant

  30. Frame rate : 25.000 FPS

  31. Color space : YUV

  32. Chroma subsampling : 4:2:0

  33. Bit depth : 8 bits

  34. Scan type : Progressive

  35. Bits/(Pixel*Frame) : 0.057

  36. Stream size : 2.09 GiB (88%)

  37. Source stream size : 2.19 GiB (92%)

  38. Codec configuration box : avcC

  39. Audio

  40. ID : 2

  41. Format : AAC LC

  42. Format/Info : Advanced Audio Codec Low Complexity

  43. Codec ID : mp4a-40-2

  44. Duration : 1 h 41 min

  45. Bit rate mode : Variable

  46. Bit rate : 256 kb/s / 256 kb/s

  47. Channel(s) : 2 channels

  48. Channel layout : L R

  49. Sampling rate : 44.1 kHz

  50. Frame rate : 43.066 FPS (1024 SPF)

  51. Compression mode : Lossy

  52. Stream size : 185 MiB (8%)

  53. Default : Yes

  54. Alternate group : 1


复制代码



文件下载


除非特别注明,本文『绝桥智多星[国语配音/中文字幕].The.Big.Score.1990.WEB-DL.1080p.H264.AAC-HOMEWEB 2.37GB』来源于互联网机器人自动抓取,非本站原创。 浮游电影网不对本文拥有版权,如有侵犯,请联系邮箱:fuyouu#yandex.com[#换成@]投诉。我们会在15个工作日内删除。 但烦请转载时请标明出处:“本文转载于『浮游电影网』,原文地址:https://www.fuyouu.com/21483.html

评论吧骚年!

发表你的见解   

昵称*

E-mail*(建议输入,以便收到博主回复的提示邮件)

验证码*

您可以使用eMule或eMule Mod(Windows)、aMule(Win、Linux、Mac)等软件下载eD2k链接。。
eMule收藏集(.emulecollection)文件是您选中的所有链接的列表文件。eMule可以直接下载它们。
按住SHIFT键选择可以选中多个选择框。
可用文件名和大小选择器来选择文件。
文件名选择器帮您根据文件名称或后缀来选择文件。不分大小写。
符号使用:
和:空格( )、+
不包含:-
或:|
转义:一对英文引号("");
匹配开头:^
匹配结尾:$
例如:
选中所有名称中包含有“eMule”或“0.49c”字眼,但不包含有“exe”字眼的:emule|0.49c -exe
选中所有名称的开头是“eMule”,结尾是“0.49c”的:^emule 0.49c$
选中所有名称中带有“eMule 0.49c”的(必须是“eMule 0.49c”,中间没有别的字符,不能是“eMule fake 0.49c”),需要转义:"emule 0.49c"
大小选择器帮您根据文件大小选择文件。