当前位置: 首页 >> 欧美电影 >> 追忆迷局[简繁英字幕].Reminiscence.2021.2160p.HDR.UHD.BluRay.TrueHD.7.1.Atmos.x265-10bit-ENTHD 18.13GB >> 正文

追忆迷局[简繁英字幕].Reminiscence.2021.2160p.HDR.UHD.BluRay.TrueHD.7.1.Atmos.x265-10bit-ENTHD 18.13GB

2022年04月19日 22:44:46     电影发布:来源于网络     电影分类:欧美电影     评论(0)    

追忆迷局[简繁英字幕].Reminiscence.2021.2160p.HDR.UHD.BluRay.TrueHD.7.1.Atmos.x265 10bit ENTHD 18.13GB  欧美电影  第1张

◎译 名 追忆迷局 / 追忆 / 回忆 / 追忆人(台) / 回忆潜行(港)

◎片 名 Reminiscence

◎年 代 2021

◎产 地 美国

◎类 别 爱情 / 科幻 / 悬疑 / 惊悚

◎语 言 英语

◎上映日期 2021-08-20(美国)

◎IMDb链接 https://www.imdb.com/title/tt3272066/

◎豆瓣评分 6.2/10 (12764人评价)

◎豆瓣链接 https://movie.douban.com/subject/26615748/

◎片 长 116分钟

◎导 演 丽莎·乔伊 Lisa Joy (id:1362816)

◎编 剧 丽莎·乔伊 Lisa Joy (id:1362816)

◎演 员 休·杰克曼 Hugh Jackman (id:1010508)

丽贝卡·弗格森 Rebecca Ferguson (id:1088314)

坦迪·牛顿 Thandiwe Newton (id:1040513)

克利夫·柯蒂斯 Cliff Curtis (id:1022578)

玛丽娜·德·塔维拉 Marina de Tavira (id:1282087)

吴彦祖 Daniel Wu (id:1027502)

莫让·阿里亚 Mojean Aria (id:1461029)

布莱特·卡伦 Brett Cullen (id:1049693)

娜塔丽·马丁内斯 Natalie Martinez (id:1009324)

安吉拉·萨拉弗安 Angela Sarafyan (id:1213058)

山姆麦地那 Sam Medina (id:1336516)

朴云龙 Woon Young Park (id:1127857)

韩·索托 Han Soto (id:1446014)

雷·埃尔南德斯 Rey Hernandez (id:1323494)

安德鲁·马希特 Andrew Masset (id:1118328)

妮可·帕克 Nico Parker (id:1405391)

朱尔斯·哈特利 Jules Hartley (id:1429938)

伊万·姆巴科普 Ivan Mbakop (id:1445883)

杰夫·布洛克顿 Jeff Brockton (id:1076843)

迈克尔·帕帕约翰 Michael Papajohn (id:1040856)

Laci Broussard Laci Broussard (id:1454766)

肖恩·卡特·彼得森 Shawn Carter Peterson (id:1386174)

托马斯·弗兰西斯·墨菲 Thomas Francis Murphy (id:1383086)

让·克劳德·卢耶 Jean Claude Leuyer (id:1254641)

特瑞·韦伯 Teri Wyble (id:1339892)

奥图姆·戴尔 Autumn Dial (id:1357563)

迈尔斯·哈姆帕斯 Myles Humphus (id:1371369)

戈登·德克海默 Gordon Dexheimer (id:1240166)

蒂莫西·辛里奇斯 Timothy Hinrichs (id:1432831)

道恩·林恩 Dawn Lyn (id:1272931)

托尼·查普曼·斯蒂尔 Toney Chapman Steele (id:1432828)

哈维尔·莫利纳 Javier Molina (id:1461041)

诺里奥·西村 Norio Nishimura (id:1461042)

丽莎·乔伊 Lisa Joy (id:1362816)

乔纳森·诺兰 Jonathan Nolan (id:1275104)

迈克·德·鲁卡 Michael De Luca (id:1314002)

亚伦·莱德 Aaron Ryder (id:1369601)

◎简 介

尼克·班尼斯特(休·杰克曼 饰)是一名私家侦探。他的工作主要是帮助客户重拾遗忘的记忆,沉湎于幽暗诱人的逝去时光。尼克生活在因海平面上升而已经半淹没的迈阿密,然而当他接手了新客户梅(丽贝卡·弗格森 饰)之后,他的生活永远改变了。一次简单的寻回失物之任务,演变成一出危机重重的惊天迷局。尼克努力寻找着梅的失踪真相,而与整座城市存亡息息相关的巨型阴谋也逐渐浮现。他必须争分夺秒,破解回忆迷局,但他真的能在阴谋将自己吞噬前,找到梅失踪的真相吗?同时尼克也必须直面一个终极难题:为了留住你最爱的人,你到底愿意付出什么?

  1. ##### MediaInfo ######

  2. General

  3. Unique ID : 183382636950205261560344059031647305287 (0x89F6360FC81C466D715DC739CBFA3E47)

  4. Complete name : Reminiscence.2021.2160p.HDR.UHD.BluRay.TrueHD.7.1.Atmos.x265-10bit-HDS.mkv

  5. Format : Matroska

  6. Format version : Version 4

  7. File size : 18.1 GiB

  8. Duration : 1 h 55 min

  9. Overall bit rate mode : Variable

  10. Overall bit rate : 22.4 Mb/s

  11. Movie name : Reminiscence 2021 2160p HDR UHD BluRay TrueHD 7.1 Atmos x265-10bit-HDS

  12. Encoded date : UTC 2022-04-17 09:57:40

  13. Writing application : mkvmerge v67.0.0 ('Under Stars') 64-bit

  14. Writing library : libebml v1.4.2 + libmatroska v1.6.4

  15. Video

  16. ID : 1

  17. Format : HEVC

  18. Format/Info : High Efficiency Video Coding

  19. Format profile : Main [email protected]@High

  20. HDR format : SMPTE ST 2086, HDR10 compatible

  21. Codec ID : V_MPEGH/ISO/HEVC

  22. Duration : 1 h 55 min

  23. Bit rate : 19.1 Mb/s

  24. Width : 3 840 pixels

  25. Height : 1 600 pixels

  26. Display aspect ratio : 2.40:1

  27. Frame rate mode : Constant

  28. Frame rate : 23.976 (24000/1001/53354) FPS

  29. Color space : YUV

  30. Chroma subsampling : 4:2:0 (Type 2)

  31. Bit depth : 10 bits

  32. Bits/(Pixel*Frame) : 0.130

  33. Stream size : 15.5 GiB (85%)

  34. Title : @HDSky

  35. Writing library : x265 3.5+12+14-106329cbd:[Windows][GCC 10.3.0][64 bit] 10bit

  36. Encoding settings : cpuid=533541111039 / frame-threads=6 / numa-pools=32 / wpp / no-pmode / no-pme / no-psnr / no-ssim / log-level=2 / input-csp=1 / input-res=3840x1600 / interlace=0 / total-frames=166855 / level-idc=0 / high-tier=1 / uhd-bd=0 / ref=4 / no-allow-non-conformance / repeat-headers / annexb / aud / no-eob / no-eos / hrd / info / hash=0 / no-temporal-layers / open-gop / min-keyint=1 / keyint=480 / gop-lookahead=0 / bframes=6 / b-adapt=2 / b-pyramid / bframe-bias=0 / rc-lookahead=60 / lookahead-slices=8 / NTMzNTQ=uuDQuD2mJt9fsCf / scenecut=40 / no-hist-scenecut / radl=0 / no-splice / no-intra-refresh / ctu=32 / min-cu-size=8 / no-rect / no-amp / max-tu-size=32 / tu-inter-depth=1 / tu-intra-depth=1 / limit-tu=0 / rdoq-level=0 / dynamic-rd=0.00 / no-ssim-rd / signhide / no-tskip / nr-intra=0 / nr-inter=0 / no-constrained-intra / strong-intra-smoothing / max-merge=3 / limit-refs=1 / no-limit-modes / me=3 / subme=5 / merange=24 / temporal-mvp / no-frame-dup / no-hme / weightp / weightb / no-analyze-src-pics / deblock=0:0 / sao / no-sao-non-deblock / rd=3 / selective-sao=4 / early-skip / rskip / no-fast-intra / no-tskip-fast / no-cu-lossless / b-intra / no-splitrd-skip / rdpenalty=0 / psy-rd=2.00 / psy-rdoq=0.00 / no-rd-refine / no-lossless / cbqpoffs=-2 / crqpoffs=-2 / rc=crf / crf=18.0 / qcomp=0.65 / qpstep=4 / stats-write=0 / stats-read=0 / vbv-maxrate=160000 / vbv-bufsize=160000 / vbv-init=0.9 / min-vbv-fullness=50.0 / max-vbv-fullness=80.0 / crf-max=0.0 / crf-min=0.0 / ipratio=1.40 / pbratio=1.30 / aq-mode=2 / aq-strength=0.90 / no-cutree / zone-count=0 / no-strict-cbr / qg-size=8 / no-rc-grain / qpmax=69 / qpmin=0 / no-const-vbv / sar=0 / overscan=0 / videoformat=5 / range=0 / colorprim=9 / transfer=16 / colormatrix=9 / chromaloc=1 / chromaloc-top=2 / chromaloc-bottom=2 / display-window=0 / master-display=G(13250,34500)B(7500,3000)R(34000,16000)WP(15635,16450)L(40000000,50) / cll=1216,98 / min-luma=0 / max-luma=1023 / log2-max-poc-lsb=8 / vui-timing-info / vui-hrd-info / slices=1 / no-opt-qp-pps / no-opt-ref-list-length-pps / no-multi-pass-opt-rps / scenecut-bias=0.05 / hist-threshold=0.03 / no-opt-cu-delta-qp / no-aq-motion / hdr10 / no-hdr10-opt / no-dhdr10-opt / no-idr-recovery-sei / analysis-reuse-level=0 / analysis-save-reuse-level=0 / analysis-load-reuse-level=0 / scale-factor=0 / refine-intra=0 / refine-inter=0 / refine-mv=1 / refine-ctu-distortion=0 / no-limit-sao / ctu-info=0 / no-lowpass-dct / refine-analysis-type=0 / copy-pic=1 / max-ausize-factor=1.0 / no-dynamic-refine / no-single-sei / no-hevc-aq / no-svt / no-field / qp-adaptation-range=1.00 / scenecut-aware-qp=0 / conformance-window-right-offset=0 / conformance-window-bottom-offset=0 / decoder-max-rate=0 / no-vbv-live-multi-pass

  37. Default : Yes

  38. Forced : No

  39. Color range : Limited

  40. Color primaries : BT.2020

  41. Transfer characteristics : PQ

  42. Matrix coefficients : BT.2020 non-constant

  43. Mastering display color primaries : Display P3

  44. Mastering display luminance : min: 0.0050 cd/m2, max: 4000 cd/m2

  45. Maximum Content Light Level : 1216 cd/m2

  46. Maximum Frame-Average Light Level : 98 cd/m2

  47. Audio

  48. ID : 2

  49. Format : MLP FBA 16-ch

  50. Format/Info : Meridian Lossless Packing FBA with 16-channel presentation

  51. Commercial name : Dolby TrueHD with Dolby Atmos

  52. Codec ID : A_TRUEHD

  53. Duration : 1 h 55 min

  54. Bit rate mode : Variable

  55. Bit rate : 3 062 kb/s

  56. Maximum bit rate : 4 716 kb/s

  57. Channel(s) : 8 channels

  58. Channel layout : L R C LFE Ls Rs Lb Rb

  59. Sampling rate : 48.0 kHz

  60. Frame rate : 1 200.000 FPS (40 SPF)

  61. Compression mode : Lossless

  62. Stream size : 2.48 GiB (14%)

  63. Title : English

  64. Language : English

  65. Default : Yes

  66. Forced : No

  67. Number of dynamic objects : 11

  68. Bed channel count : 1 channel

  69. Bed channel configuration : LFE

  70. Text #1

  71. ID : 3

  72. Format : PGS

  73. Muxing mode : zlib

  74. Codec ID : S_HDMV/PGS

  75. Codec ID/Info : Picture based subtitle format used on BDs/HD-DVDs

  76. Duration : 1 h 52 min

  77. Bit rate : 39.6 kb/s

  78. Count of elements : 3532

  79. Stream size : 31.8 MiB (0%)

  80. Title : ENG

  81. Language : English

  82. Default : Yes

  83. Forced : No

  84. Text #2

  85. ID : 4

  86. Format : PGS

  87. Muxing mode : zlib

  88. Codec ID : S_HDMV/PGS

  89. Codec ID/Info : Picture based subtitle format used on BDs/HD-DVDs

  90. Duration : 1 h 54 min

  91. Bit rate : 29.2 kb/s

  92. Count of elements : 2826

  93. Stream size : 24.0 MiB (0%)

  94. Title : CHT

  95. Language : Chinese

  96. Default : Yes

  97. Forced : No

  98. Text #3

  99. ID : 5

  100. Format : PGS

  101. Muxing mode : zlib

  102. Codec ID : S_HDMV/PGS

  103. Codec ID/Info : Picture based subtitle format used on BDs/HD-DVDs

  104. Duration : 1 h 54 min

  105. Bit rate : 30.4 kb/s

  106. Count of elements : 2948

  107. Stream size : 25.0 MiB (0%)

  108. Title : CHT

  109. Language : Chinese

  110. Default : Yes

  111. Forced : No

  112. Text #4

  113. ID : 6

  114. Format : PGS

  115. Muxing mode : zlib

  116. Codec ID : S_HDMV/PGS

  117. Codec ID/Info : Picture based subtitle format used on BDs/HD-DVDs

  118. Duration : 1 h 48 min

  119. Bit rate : 27.5 kb/s

  120. Count of elements : 2785

  121. Stream size : 21.3 MiB (0%)

  122. Title : CHS

  123. Language : Chinese

  124. Default : Yes

  125. Forced : No

  126. Text #5

  127. ID : 7

  128. Format : PGS

  129. Muxing mode : zlib

  130. Codec ID : S_HDMV/PGS

  131. Codec ID/Info : Picture based subtitle format used on BDs/HD-DVDs

  132. Duration : 1 h 48 min

  133. Bit rate : 32.0 kb/s

  134. Count of elements : 2785

  135. Stream size : 24.8 MiB (0%)

  136. Title : CHT

  137. Language : Chinese

  138. Default : Yes

  139. Forced : No

  140. Text #6

  141. ID : 8

  142. Format : PGS

  143. Muxing mode : zlib

  144. Codec ID : S_HDMV/PGS

  145. Codec ID/Info : Picture based subtitle format used on BDs/HD-DVDs

  146. Duration : 1 h 48 min

  147. Bit rate : 44.9 kb/s

  148. Count of elements : 2785

  149. Stream size : 34.7 MiB (0%)

  150. Title : CHS&ENG

  151. Language : Chinese

  152. Default : Yes

  153. Forced : No

  154. Text #7

  155. ID : 9

  156. Format : PGS

  157. Muxing mode : zlib

  158. Codec ID : S_HDMV/PGS

  159. Codec ID/Info : Picture based subtitle format used on BDs/HD-NewHD

复制代码



文件下载


除非特别注明,本文『追忆迷局[简繁英字幕].Reminiscence.2021.2160p.HDR.UHD.BluRay.TrueHD.7.1.Atmos.x265-10bit-ENTHD 18.13GB』来源于互联网机器人自动抓取,非本站原创。 浮游电影网不对本文拥有版权,如有侵犯,请联系邮箱:fuyouu#yandex.com[#换成@]投诉。我们会在15个工作日内删除。 但烦请转载时请标明出处:“本文转载于『浮游电影网』,原文地址:https://www.fuyouu.com/21482.html

评论吧骚年!

发表你的见解   

昵称*

E-mail*(建议输入,以便收到博主回复的提示邮件)

验证码*

您可以使用eMule或eMule Mod(Windows)、aMule(Win、Linux、Mac)等软件下载eD2k链接。。
eMule收藏集(.emulecollection)文件是您选中的所有链接的列表文件。eMule可以直接下载它们。
按住SHIFT键选择可以选中多个选择框。
可用文件名和大小选择器来选择文件。
文件名选择器帮您根据文件名称或后缀来选择文件。不分大小写。
符号使用:
和:空格( )、+
不包含:-
或:|
转义:一对英文引号("");
匹配开头:^
匹配结尾:$
例如:
选中所有名称中包含有“eMule”或“0.49c”字眼,但不包含有“exe”字眼的:emule|0.49c -exe
选中所有名称的开头是“eMule”,结尾是“0.49c”的:^emule 0.49c$
选中所有名称中带有“eMule 0.49c”的(必须是“eMule 0.49c”,中间没有别的字符,不能是“eMule fake 0.49c”),需要转义:"emule 0.49c"
大小选择器帮您根据文件大小选择文件。