当前位置: 首页 >> 港台电影 >> 海市蜃楼[国语配音/中文字幕].Mirage.1987.WEB-DL.1080p.H264.AAC-HOMEWEB 2.03GB >> 正文

海市蜃楼[国语配音/中文字幕].Mirage.1987.WEB-DL.1080p.H264.AAC-HOMEWEB 2.03GB

2022年04月19日 22:40:23     电影发布:来源于网络     电影分类:港台电影     评论(0)    

海市蜃楼[国语配音/中文字幕].Mirage.1987.WEB DL.1080p.H264.AAC HOMEWEB 2.03GB  港台电影  第1张

◎译 名 海市蜃楼 / Mirage

◎年 代 1987

◎产 地 中国香港 / 中国大陆

◎类 别 动作 / 冒险

◎语 言 粤语

◎上映日期 1987-01-23

◎IMDb链接 https://www.imdb.com/title/tt0093545/

◎豆瓣评分 7.6/10 (2472人评价)

◎豆瓣链接 https://movie.douban.com/subject/1303492/

◎片 长 94 分钟

◎导 演 徐小明 Siu Ming Tsui (id:1299583)

◎编 剧 徐小明 Siu Ming Tsui (id:1299583)

徐达初 Jobic Tsui (id:1364940)

◎演 员 于荣光 Ringo Yu (id:1274556)

徐小明 Siu Ming Tsui (id:1299583)

林迪安 Dion Lam (id:1289289)

王华 Hua Wang (id:1442473)

谷轩昭 Huan-Chiu Ku (id:1289063)

曹荣 Wing Cho (id:1315226)

帕霞·乌买尔 Pasha Umer (id:1350144)

童自荣 Zirong Tong (id:1318216)

韩培珠 Hon Pau-Chu (id:1434160)

黄霑 James Wong (id:1008091)

顾嘉辉 Joseph Koo (id:1017256)

何菊生 Jusheng He (id:1406862)

曹荣 Wing Cho (id:1315226)

范冬雨 Dongyu Fan (id:1318739)

林迪安 Dion Lam (id:1289289)

谷轩昭 Huan-Chiu Ku (id:1289063)

◎简 介

故事发生在20世纪30年代,一次偶然中,摄影师唐廷轩(于荣光 饰)在沙漠之中目睹了海市蜃楼的壮观景致,并且看见一名骑着白马的红衣女子向他款款走来,女子的美艳吸引了唐廷轩的注意,在拍下一张珍贵的照片之后,女子消失了。回家后,女子的样子依然深深地印在唐廷轩的脑海里,为了找到女子,他和好友毛德威(徐小明 饰)结伴,重回大漠。

一场意外中,唐廷轩一行人遭遇了土匪,在与土匪头子的激烈交战中,唐廷轩意外的发现此人不是别人,正是自己日思夜想的神秘女子沙洛娃(帕夏·乌买尔 饰),震惊之下疏于防范,唐廷轩成为了沙洛娃的俘虏。

◎获奖情况 (共1项)

第7届香港电影金像奖 (1988)

最佳动作设计(提名)

└──徐小明 (id:1299583)

  1. ##### MediaInfo ######

  2. General

  3. Complete name : Mirage 1987 WEB-DL 1080p H264 AAC-Dave.mp4

  4. Format : MPEG-4

  5. Format profile : Base Media

  6. Codec ID : isom (isom/iso2/avc1/mp41)

  7. File size : 2.03 GiB

  8. Duration : 1 h 26 min

  9. Overall bit rate mode : Variable

  10. Overall bit rate : 3 349 kb/s

  11. Writing application : Lavf59.16.100

  12. Video

  13. ID : 1

  14. Format : AVC

  15. Format/Info : Advanced Video Codec

  16. Format profile : [email protected]

  17. Format settings : CABAC / 4 Ref Frames

  18. Format settings, CABAC : Yes

  19. Format settings, Reference frames : 4 frames

  20. Codec ID : avc1

  21. Codec ID/Info : Advanced Video Coding

  22. Duration : 1 h 26 min

  23. Source duration : 1 h 26 min

  24. Bit rate : 2 951 kb/s

  25. Maximum bit rate : 3 089 kb/s

  26. Width : 1 920 pixels

  27. Height : 898 pixels

  28. Display aspect ratio : 2.138

  29. Frame rate mode : Constant

  30. Frame rate : 25.000 FPS

  31. Color space : YUV

  32. Chroma subsampling : 4:2:0

  33. Bit depth : 8 bits

  34. Scan type : Progressive

  35. Bits/(Pixel*Frame) : 0.068

  36. Stream size : 1.79 GiB (88%)

  37. Source stream size : 1.87 GiB (92%)

  38. Color range : Limited

  39. Color primaries : BT.709

  40. Transfer characteristics : BT.709

  41. Matrix coefficients : BT.709

  42. Codec configuration box : avcC

  43. Audio

  44. ID : 2

  45. Format : AAC LC

  46. Format/Info : Advanced Audio Codec Low Complexity

  47. Codec ID : mp4a-40-2

  48. Duration : 1 h 26 min

  49. Bit rate mode : Variable

  50. Bit rate : 256 kb/s / 256 kb/s

  51. Channel(s) : 2 channels

  52. Channel layout : L R

  53. Sampling rate : 44.1 kHz

  54. Frame rate : 43.066 FPS (1024 SPF)

  55. Compression mode : Lossy

  56. Stream size : 158 MiB (8%)

  57. Default : Yes

  58. Alternate group : 1


复制代码



文件下载


除非特别注明,本文『海市蜃楼[国语配音/中文字幕].Mirage.1987.WEB-DL.1080p.H264.AAC-HOMEWEB 2.03GB』来源于互联网机器人自动抓取,非本站原创。 浮游电影网不对本文拥有版权,如有侵犯,请联系邮箱:fuyouu#yandex.com[#换成@]投诉。我们会在15个工作日内删除。 但烦请转载时请标明出处:“本文转载于『浮游电影网』,原文地址:https://www.fuyouu.com/21481.html

评论吧骚年!

发表你的见解   

昵称*

E-mail*(建议输入,以便收到博主回复的提示邮件)

验证码*

您可以使用eMule或eMule Mod(Windows)、aMule(Win、Linux、Mac)等软件下载eD2k链接。。
eMule收藏集(.emulecollection)文件是您选中的所有链接的列表文件。eMule可以直接下载它们。
按住SHIFT键选择可以选中多个选择框。
可用文件名和大小选择器来选择文件。
文件名选择器帮您根据文件名称或后缀来选择文件。不分大小写。
符号使用:
和:空格( )、+
不包含:-
或:|
转义:一对英文引号("");
匹配开头:^
匹配结尾:$
例如:
选中所有名称中包含有“eMule”或“0.49c”字眼,但不包含有“exe”字眼的:emule|0.49c -exe
选中所有名称的开头是“eMule”,结尾是“0.49c”的:^emule 0.49c$
选中所有名称中带有“eMule 0.49c”的(必须是“eMule 0.49c”,中间没有别的字符,不能是“eMule fake 0.49c”),需要转义:"emule 0.49c"
大小选择器帮您根据文件大小选择文件。