当前位置: 首页 >> 国产电影 >> 木棉袈裟[国语配音/中文字幕].Holy.Robe.of.the.Shaolin.Temple.1985.WEB-DL.1080p.H264.AAC-HOMEWEB 2.11GB >> 正文

木棉袈裟[国语配音/中文字幕].Holy.Robe.of.the.Shaolin.Temple.1985.WEB-DL.1080p.H264.AAC-HOMEWEB 2.11GB

2022年04月19日 22:37:50     电影发布:来源于网络     电影分类:国产电影     评论(0)    

木棉袈裟[国语配音/中文字幕].Holy.Robe.of.the.Shaolin.Temple.1985.WEB DL.1080p.H264.AAC HOMEWEB 2.11GB  国产电影  第1张

◎译 名 木棉袈裟 / Holy Robe of the Shaolin Temple

◎年 代 1985

◎产 地 中国大陆 / 中国香港

◎类 别 动作 / 古装

◎语 言 粤语 / 汉语普通话

◎上映日期 1985-02-15(中国大陆)

◎IMDb链接 https://www.imdb.com/title/tt0089637/

◎豆瓣评分 6.8/10 (4130人评价)

◎豆瓣链接 https://movie.douban.com/subject/1306105/

◎片 长 90分钟

◎导 演 徐小明 Siu Ming Tsui (id:1299583)

◎编 剧 徐小明 Siu Ming Tsui (id:1299583)

叶楠 Nan Ye (id:1306116)

◎演 员 徐向东 Xiangdong Xu (id:1316710)

于荣光 Ringo Yu (id:1274556)

俞大陆 Dalu Yu (id:1452762)

林秋萍 Qiuping Lin (id:1362122)

王华 Hua Wang (id:1442473)

童自荣 Zirong Tong (id:1318216)

韩培珠 Hon Pau-Chu (id:1434160)

顾嘉辉 Joseph Koo (id:1017256)

李金祥 Jinxiang Li (id:1406012)

田迪 Di Tian (id:1346164)

林炳坤 Bingkun Lin (id:1350348)

谭镇渡 Tony Tam Chun-To (id:1417488)

卢国沾 Jimmy Lo (id:1359205)

李兆熊 Lee Siu-Hung (id:1351336)

◎简 介

时为明朝末年,奸佞当道,世间离乱。强梁啸聚的锦衣卫雄霸一时,无奈江湖上少林中人扶危济贫,匡扶正义,令锦衣卫头目王澄(俞大陆 饰)恨之入骨。为此,他想出一条毒计,命得力手下祁天远(于荣光 饰)化名金光寺僧人了空,伺机潜入少林,图谋成为主持以号令天下。少林弟子惠能(徐向东 饰)得悉王澄阴谋,星夜赶回少林,途中在草原帮助少女林英(林秋萍 饰)一家勇拦惊马。与此同时,王澄率锦衣卫进入少林,逼迫住持圆慧让位祁天远。祁与圆慧比武,暗下毒手。关键时刻惠能及时赶到,并从住持手中得到象征少林正法的木棉袈裟。为有朝一日复兴少林,惠能保护袈裟遁走,而祁等紧追不舍。

正邪对抗的千古传奇由此流传……

  1. ##### MediaInfo ######

  2. General

  3. Complete name : Holy Robe of the Shaolin Temple 1985 WEB-DL 1080p H264 AAC-Dave.mp4

  4. Format : MPEG-4

  5. Format profile : Base Media

  6. Codec ID : isom (isom/iso2/avc1/mp41)

  7. File size : 2.11 GiB

  8. Duration : 1 h 30 min

  9. Overall bit rate mode : Variable

  10. Overall bit rate : 3 321 kb/s

  11. Writing application : Lavf59.16.100

  12. Video

  13. ID : 1

  14. Format : AVC

  15. Format/Info : Advanced Video Codec

  16. Format profile : [email protected]

  17. Format settings : CABAC / 4 Ref Frames

  18. Format settings, CABAC : Yes

  19. Format settings, Reference frames : 4 frames

  20. Codec ID : avc1

  21. Codec ID/Info : Advanced Video Coding

  22. Duration : 1 h 30 min

  23. Source duration : 1 h 30 min

  24. Bit rate : 2 924 kb/s

  25. Maximum bit rate : 3 061 kb/s

  26. Width : 1 920 pixels

  27. Height : 820 pixels

  28. Display aspect ratio : 2.35:1

  29. Frame rate mode : Constant

  30. Frame rate : 25.000 FPS

  31. Color space : YUV

  32. Chroma subsampling : 4:2:0

  33. Bit depth : 8 bits

  34. Scan type : Progressive

  35. Bits/(Pixel*Frame) : 0.074

  36. Stream size : 1.85 GiB (88%)

  37. Source stream size : 1.94 GiB (92%)

  38. Codec configuration box : avcC

  39. Audio

  40. ID : 2

  41. Format : AAC LC

  42. Format/Info : Advanced Audio Codec Low Complexity

  43. Codec ID : mp4a-40-2

  44. Duration : 1 h 30 min

  45. Bit rate mode : Variable

  46. Bit rate : 256 kb/s / 256 kb/s

  47. Channel(s) : 2 channels

  48. Channel layout : L R

  49. Sampling rate : 44.1 kHz

  50. Frame rate : 43.066 FPS (1024 SPF)

  51. Compression mode : Lossy

  52. Stream size : 165 MiB (8%)

  53. Default : Yes

  54. Alternate group : 1


复制代码



文件下载


除非特别注明,本文『木棉袈裟[国语配音/中文字幕].Holy.Robe.of.the.Shaolin.Temple.1985.WEB-DL.1080p.H264.AAC-HOMEWEB 2.11GB』来源于互联网机器人自动抓取,非本站原创。 浮游电影网不对本文拥有版权,如有侵犯,请联系邮箱:fuyouu#yandex.com[#换成@]投诉。我们会在15个工作日内删除。 但烦请转载时请标明出处:“本文转载于『浮游电影网』,原文地址:https://www.fuyouu.com/21478.html

评论吧骚年!

发表你的见解   

昵称*

E-mail*(建议输入,以便收到博主回复的提示邮件)

验证码*

您可以使用eMule或eMule Mod(Windows)、aMule(Win、Linux、Mac)等软件下载eD2k链接。。
eMule收藏集(.emulecollection)文件是您选中的所有链接的列表文件。eMule可以直接下载它们。
按住SHIFT键选择可以选中多个选择框。
可用文件名和大小选择器来选择文件。
文件名选择器帮您根据文件名称或后缀来选择文件。不分大小写。
符号使用:
和:空格( )、+
不包含:-
或:|
转义:一对英文引号("");
匹配开头:^
匹配结尾:$
例如:
选中所有名称中包含有“eMule”或“0.49c”字眼,但不包含有“exe”字眼的:emule|0.49c -exe
选中所有名称的开头是“eMule”,结尾是“0.49c”的:^emule 0.49c$
选中所有名称中带有“eMule 0.49c”的(必须是“eMule 0.49c”,中间没有别的字符,不能是“eMule fake 0.49c”),需要转义:"emule 0.49c"
大小选择器帮您根据文件大小选择文件。