当前位置: 首页 >> 海外电影 >> 火药奶昔[简繁字幕].Gunpowder.Milkshake.2021.2160p.HDR.UHD.BluRay.TrueHD.7.1.Atmos.x265-10bit-ENTHD 12.72GB >> 正文

火药奶昔[简繁字幕].Gunpowder.Milkshake.2021.2160p.HDR.UHD.BluRay.TrueHD.7.1.Atmos.x265-10bit-ENTHD 12.72GB

2022年04月19日 22:36:48     电影发布:来源于网络     电影分类:海外电影     评论(0)    

火药奶昔[简繁字幕].Gunpowder.Milkshake.2021.2160p.HDR.UHD.BluRay.TrueHD.7.1.Atmos.x265 10bit ENTHD 12.72GB  海外电影  第1张

◎译 名 火药奶昔 / 血客联盟(台) / Bloody Milkshake

◎片 名 Gunpowder Milkshake

◎年 代 2021

◎产 地 法国 / 美国 / 德国

◎类 别 动作 / 惊悚 / 冒险

◎语 言 英语

◎上映日期 2021-07-14(美国)

◎IMDb链接 https://www.imdb.com/title/tt8368408/

◎豆瓣评分 5.7/10 (6340人评价)

◎豆瓣链接 https://movie.douban.com/subject/30425275/

◎片 长 114分钟

◎导 演 纳沃特·帕普莎多 Navot Papushado (id:1410586)

◎编 剧 纳沃特·帕普莎多 Navot Papushado (id:1410586)

◎演 员 凯伦·吉兰 Karen Gillan (id:1036344)

琳娜·海蒂 Lena Headey (id:1053571)

卡拉·古奇诺 Carla Gugino (id:1049495)

杨紫琼 Michelle Yeoh (id:1022664)

安吉拉·贝塞特 Angela Bassett (id:1025214)

保罗·吉亚玛提 Paul Giamatti (id:1017893)

拉尔夫·伊内森 Ralph Ineson (id:1108378)

弗蕾娅·艾伦 Freya Allan (id:1402757)

克洛伊·科尔曼 Chloe Coleman (id:1369480)

罗伯特?马瑟 Robert Maaser (id:1414390)

亚当·那加提斯 Adam Nagaitis (id:1348296)

塞缪尔·安德森 Samuel Anderson (id:1342585)

乔梅杨 Mai Duong Kieu (id:1415385)

杰克·班戴拉 Jack Bandeira (id:1425671)

约书亚·格罗斯 Joshua Grothe (id:1369730)

艾德·伯奇 Ed Birch (id:1337343)

大卫·齐梅尔席德 David Zimmerschied (id:1333797)

安妮塔·欧拉藤吉 Anita Olatunji (id:1428567)

乔安娜·波宾 Joanna Bobin (id:1449107)

迈克尔·塞瑞岑 Michael Seresin (id:1009970)

Louise Frogley Louise Frogley (id:1284250)

◎简 介

萨姆(凯伦·吉兰饰)的母亲斯卡利特(琳娜·海蒂饰)是一名精英刺客,当萨姆被迫与母亲分开时,她只有 12 岁。萨姆由 The Firm 抚养长大,这是她母亲为之工作的无情犯罪集团。现在,15 年过去了,萨姆跟随母亲的脚步,成长为一名作风凌厉的女杀手。她用自己的“才能”来收拾 The Firm 最危险的烂摊子,既能干又忠诚。但是,当高风险工作出问题时,萨姆必须选择继续效忠 The Firm,还是保护无辜的 8 岁女孩埃米莉(克洛伊·科尔曼饰)的生命。萨姆成为了被追杀的对象,现在她只有一次生存的机会:与她的母亲和其他女杀手“图书管理员”(杨紫琼、安吉拉·贝塞特和卡拉·古奇诺饰)团聚。这三代女性现在必须学会彼此信任,勇敢地对抗 The Firm 及爪牙大军,奋起反抗那些可以夺走她们一切的人。

  1. ##### MediaInfo ######

  2. General

  3. Unique ID : 126748208563933227772792149541791674753 (0x5F5AD128AFA9320FB9E4D172DDEB3181)

  4. Complete name : Gunpowder.Milkshake.2021.2160p.HDR.UHD.BluRay.TrueHD.7.1.Atmos.x265-10bit-HDS.mkv

  5. Format : Matroska

  6. Format version : Version 4

  7. File size : 12.7 GiB

  8. Duration : 1 h 54 min

  9. Overall bit rate mode : Variable

  10. Overall bit rate : 15.9 Mb/s

  11. Movie name : Gunpowder Milkshake 2021 2160p HDR UHD BluRay TrueHD 7.1 Atmos x265-10bit-HDS

  12. Encoded date : UTC 2022-04-18 08:20:14

  13. Writing application : mkvmerge v67.0.0 ('Under Stars') 64-bit

  14. Writing library : libebml v1.4.2 + libmatroska v1.6.4

  15. Video

  16. ID : 1

  17. Format : HEVC

  18. Format/Info : High Efficiency Video Coding

  19. Format profile : Main [email protected]@High

  20. HDR format : SMPTE ST 2086, HDR10 compatible

  21. Codec ID : V_MPEGH/ISO/HEVC

  22. Duration : 1 h 54 min

  23. Bit rate : 12.4 Mb/s

  24. Width : 3 840 pixels

  25. Height : 1 600 pixels

  26. Display aspect ratio : 2.40:1

  27. Frame rate mode : Constant

  28. Frame rate : 24.000 FPS

  29. Color space : YUV

  30. Chroma subsampling : 4:2:0 (Type 2)

  31. Bit depth : 10 bits

  32. Bits/(Pixel*Frame) : 0.084

  33. Stream size : 9.95 GiB (78%)

  34. Title : @HDSky

  35. Writing library : x265 3.5+12+14-106329cbd:[Windows][GCC 10.3.0][64 bit] 10bit

  36. Encoding settings : cpuid=533541111039 / frame-threads=6 / numa-pools=32 / wpp / no-pmode / no-pme / no-psnr / no-ssim / log-level=2 / input-csp=1 / input-res=3840x1600 / interlace=0 / total-frames=165045 / level-idc=0 / high-tier=1 / uhd-bd=0 / ref=4 / no-allow-non-conformance / repeat-headers / annexb / aud / no-eob / no-eos / hrd / info / hash=0 / no-temporal-layers / open-gop / min-keyint=1 / keyint=480 / gop-lookahead=0 / bframes=6 / b-adapt=2 / b-pyramid / bframe-bias=0 / rc-lookahead=60 / lookahead-slices=8 / NTMzNTQ=uuDQuD2mJt9fsCf / scenecut=40 / no-hist-scenecut / radl=0 / no-splice / no-intra-refresh / ctu=32 / min-cu-size=8 / no-rect / no-amp / max-tu-size=32 / tu-inter-depth=1 / tu-intra-depth=1 / limit-tu=0 / rdoq-level=0 / dynamic-rd=0.00 / no-ssim-rd / signhide / no-tskip / nr-intra=0 / nr-inter=0 / no-constrained-intra / strong-intra-smoothing / max-merge=3 / limit-refs=1 / no-limit-modes / me=3 / subme=5 / merange=24 / temporal-mvp / no-frame-dup / no-hme / weightp / weightb / no-analyze-src-pics / deblock=0:0 / sao / no-sao-non-deblock / rd=3 / selective-sao=4 / early-skip / rskip / no-fast-intra / no-tskip-fast / no-cu-lossless / b-intra / no-splitrd-skip / rdpenalty=0 / psy-rd=2.00 / psy-rdoq=0.00 / no-rd-refine / no-lossless / cbqpoffs=-2 / crqpoffs=-2 / rc=crf / crf=22.0 / qcomp=0.65 / qpstep=4 / stats-write=0 / stats-read=0 / vbv-maxrate=160000 / vbv-bufsize=160000 / vbv-init=0.9 / min-vbv-fullness=50.0 / max-vbv-fullness=80.0 / crf-max=0.0 / crf-min=0.0 / ipratio=1.40 / pbratio=1.30 / aq-mode=2 / aq-strength=0.90 / no-cutree / zone-count=0 / no-strict-cbr / qg-size=8 / no-rc-grain / qpmax=69 / qpmin=0 / no-const-vbv / sar=0 / overscan=0 / videoformat=5 / range=0 / colorprim=9 / transfer=16 / colormatrix=9 / chromaloc=1 / chromaloc-top=2 / chromaloc-bottom=2 / display-window=0 / master-display=G(13250,34500)B(7500,3000)R(34000,16000)WP(15635,16450)L(10000000,1) / cll=1044,386 / min-luma=0 / max-luma=1023 / log2-max-poc-lsb=8 / vui-timing-info / vui-hrd-info / slices=1 / no-opt-qp-pps / no-opt-ref-list-length-pps / no-multi-pass-opt-rps / scenecut-bias=0.05 / hist-threshold=0.03 / no-opt-cu-delta-qp / no-aq-motion / hdr10 / no-hdr10-opt / no-dhdr10-opt / no-idr-recovery-sei / analysis-reuse-level=0 / analysis-save-reuse-level=0 / analysis-load-reuse-level=0 / scale-factor=0 / refine-intra=0 / refine-inter=0 / refine-mv=1 / refine-ctu-distortion=0 / no-limit-sao / ctu-info=0 / no-lowpass-dct / refine-analysis-type=0 / copy-pic=1 / max-ausize-factor=1.0 / no-dynamic-refine / no-single-sei / no-hevc-aq / no-svt / no-field / qp-adaptation-range=1.00 / scenecut-aware-qp=0 / conformance-window-right-offset=0 / conformance-window-bottom-offset=0 / decoder-max-rate=0 / no-vbv-live-multi-pass

  37. Default : Yes

  38. Forced : No

  39. Color range : Limited

  40. Color primaries : BT.2020

  41. Transfer characteristics : PQ

  42. Matrix coefficients : BT.2020 non-constant

  43. Mastering display color primaries : Display P3

  44. Mastering display luminance : min: 0.0001 cd/m2, max: 1000 cd/m2

  45. Maximum Content Light Level : 1044 cd/m2

  46. Maximum Frame-Average Light Level : 386 cd/m2

  47. Audio

  48. ID : 2

  49. Format : MLP FBA 16-ch

  50. Format/Info : Meridian Lossless Packing FBA with 16-channel presentation

  51. Commercial name : Dolby TrueHD with Dolby Atmos

  52. Codec ID : A_TRUEHD

  53. Duration : 1 h 54 min

  54. Bit rate mode : Variable

  55. Bit rate : 3 334 kb/s

  56. Maximum bit rate : 5 103 kb/s

  57. Channel(s) : 8 channels

  58. Channel layout : L R C LFE Ls Rs Lb Rb

  59. Sampling rate : 48.0 kHz

  60. Frame rate : 1 200.000 FPS (40 SPF)

  61. Compression mode : Lossless

  62. Stream size : 2.67 GiB (21%)

  63. Title : English

  64. Language : English

  65. Default : Yes

  66. Forced : No

  67. Number of dynamic objects : 13

  68. Bed channel count : 1 channel

  69. Bed channel configuration : LFE

  70. Text #1

  71. ID : 3

  72. Format : PGS

  73. Muxing mode : zlib

  74. Codec ID : S_HDMV/PGS

  75. Codec ID/Info : Picture based subtitle format used on BDs/HD-DVDs

  76. Duration : 1 h 49 min

  77. Bit rate : 25.9 kb/s

  78. Count of elements : 2302

  79. Stream size : 20.2 MiB (0%)

  80. Title : CHS

  81. Language : Chinese

  82. Default : Yes

  83. Forced : No

  84. Text #2

  85. ID : 4

  86. Format : PGS

  87. Muxing mode : zlib

  88. Codec ID : S_HDMV/PGS

  89. Codec ID/Info : Picture based subtitle format used on BDs/HD-DVDs

  90. Duration : 1 h 49 min

  91. Bit rate : 26.7 kb/s

  92. Count of elements : 2302

  93. Stream size : 20.9 MiB (0%)

  94. Title : CHT

  95. Language : Chinese

  96. Default : Yes

  97. Forced : No

  98. Text #3

  99. ID : 5

  100. Format : PGS

  101. Muxing mode : zlib

  102. Codec ID : S_HDMV/PGS

  103. Codec ID/Info : Picture based subtitle format used on BDs/HD-DVDs

  104. Duration : 1 h 49 min

  105. Bit rate : 33.2 kb/s

  106. Count of elements : 2302

  107. Stream size : 26.0 MiB (0%)

  108. Title : CHS&ENG

  109. Language : Chinese

  110. Default : Yes

  111. Forced : No

  112. Text #4

  113. ID : 6

  114. Format : PGS

  115. Muxing mode : zlib

  116. Codec ID : S_HDMV/PGS

  117. Codec ID/Info : Picture based subtitle format used on BDs/HD-DVDs

  118. Duration : 1 h 49 min

  119. Bit rate : 34.0 kb/s

  120. Count of elements : 2302

  121. Stream size : 26.6 MiB (0%)

  122. Title : CHT&ENG

  123. Language : Chinese

  124. Default : Yes

  125. Forced : No

  126. Menu

  127. 00:00:00.000 : en:绔犺妭 01

  128. 00:09:00.000 : en:绔犺妭 02

  129. 00:19:00.375 : en:绔犺妭 03

  130. 00:28:08.458 : en:绔犺妭 04

  131. 00:38:39.000 : en:绔犺妭 05

  132. 00:49:54.708 : en:绔犺妭 06

  133. 00:58:43.541 : en:绔犺妭 07

  134. 01:07:56.166 : en:绔犺妭 08

  135. 01:19:35.625 : en:绔犺妭 09

  136. 01:30:26.916 : en:绔犺妭 10

  137. 01:40:39.416 : en:绔犺妭 11

  138. 01:49:02.041 : en:绔犺妭 12


复制代码



文件下载


除非特别注明,本文『火药奶昔[简繁字幕].Gunpowder.Milkshake.2021.2160p.HDR.UHD.BluRay.TrueHD.7.1.Atmos.x265-10bit-ENTHD 12.72GB』来源于互联网机器人自动抓取,非本站原创。 浮游电影网不对本文拥有版权,如有侵犯,请联系邮箱:fuyouu#yandex.com[#换成@]投诉。我们会在15个工作日内删除。 但烦请转载时请标明出处:“本文转载于『浮游电影网』,原文地址:https://www.fuyouu.com/21477.html

评论吧骚年!

发表你的见解   

昵称*

E-mail*(建议输入,以便收到博主回复的提示邮件)

验证码*

您可以使用eMule或eMule Mod(Windows)、aMule(Win、Linux、Mac)等软件下载eD2k链接。。
eMule收藏集(.emulecollection)文件是您选中的所有链接的列表文件。eMule可以直接下载它们。
按住SHIFT键选择可以选中多个选择框。
可用文件名和大小选择器来选择文件。
文件名选择器帮您根据文件名称或后缀来选择文件。不分大小写。
符号使用:
和:空格( )、+
不包含:-
或:|
转义:一对英文引号("");
匹配开头:^
匹配结尾:$
例如:
选中所有名称中包含有“eMule”或“0.49c”字眼,但不包含有“exe”字眼的:emule|0.49c -exe
选中所有名称的开头是“eMule”,结尾是“0.49c”的:^emule 0.49c$
选中所有名称中带有“eMule 0.49c”的(必须是“eMule 0.49c”,中间没有别的字符,不能是“eMule fake 0.49c”),需要转义:"emule 0.49c"
大小选择器帮您根据文件大小选择文件。