当前位置: 首页 >> 国产电影 >> 孙中山[共2部合集][国语配音/中文字幕].Dr.Sun.Yat-Sen.1986.WEB-DL.4K.H265.AAC-HOMEWEB 2.56GB >> 正文

孙中山[共2部合集][国语配音/中文字幕].Dr.Sun.Yat-Sen.1986.WEB-DL.4K.H265.AAC-HOMEWEB 2.56GB

2022年04月19日 22:34:28     电影发布:来源于网络     电影分类:国产电影     评论(0)    

孙中山[共2部合集][国语配音/中文字幕].Dr.Sun.Yat Sen.1986.WEB DL.4K.H265.AAC HOMEWEB 2.56GB  国产电影  第1张

◎译 名 孙中山 / Dr.Sun Yat-Sen

◎年 代 1986

◎产 地 中国大陆

◎类 别 剧情

◎语 言 汉语普通话

◎上映日期 1986

◎IMDb链接 https://www.imdb.com/title/tt0348143/

◎豆瓣评分 6.8/10 (652人评价)

◎豆瓣链接 https://movie.douban.com/subject/1304017/

◎片 长 150分钟

◎导 演 丁荫楠 Yinnan Ding (id:1301489)

◎演 员 王诗槐 Shihuai Wang (id:1313725)

刘文治 Wenzhi Liu (id:1305111)

张燕 Yan Zhang (id:1368890)

辛静 Jing Xin (id:1356327)

张世会 Shihui Zhang (id:1336229)

中野良子 Ryoko Nakano (id:1046781)

马静 Jing Ma (id:1368848)

张玲 Ling Zhang (id:1345621)

刘斯民 Simin Liu (id:1361661)

唐汤民 Tangmin Tang (id:1353719)

阮志强 Zhiqiang Ruan (id:1419439)

王震 Zhen Wang (id:1435956)

施万春 Wanchun Shi (id:1297445)

马卫 Wei Ma (id:1439512)

侯咏 Yong Hou (id:1286964)

王亨里 Hengli Wang (id:1300401)

冯惠琳 Huilin Feng (id:1456992)

严秀英 Xiuying Yan (id:1456993)

田世凯 Shikai Tian (id:1439374)

林洪添 Hongtian Lin (id:1456994)

闵宗泗 Zongsi Min (id:1310446)

黄校明 Xiaoming Huang (id:1457157)

关愈 Yu Guan (id:1445224)

王缉珠 Jizhu Wang (id:1439381)

任奉仪 Fengyi Ren (id:1439376)

何子云 Ziyun He (id:1439379)

李自强 Ziqiang Li (id:1452492)

谷家栋 Jiadong Gu (id:1439511)

◎简 介

20世纪末,长达三年前的封建体制在华夏大地已是积重难返,死期将至。最后一个封建往朝满清帝国早已不见入关时的雄姿飞扬,此时他就犹如一个百病缠身的耄耋老人,死亡的气息在他每一个部位四溢弥漫。外忧内患的时节,怀着一颗爱国心的有志青年们自觉开始思考国家的未来。其中以孙中山、陆皓东等为代表的青年决定武装推翻满清政府,及而发动了广州起义和惠州起义。革命失败,血染山河。几经挫折,孙文终于等到了武昌起义胜利的枪声。然而封建王朝虽然瓦解,各怀私心的军阀则格局抗衡,你争我夺,更有大总统袁世凯倒行逆施,妄图称帝。

一代国父,为了民族、民权、民生的伟大理想奔波一生,死而后已……

◎获奖情况 (共13项)

第7届中国电影金鸡奖 (1987)

最佳故事片

最佳导演

└──丁荫楠 (id:1301489)

最佳男主角

└──刘文治 (id:1305111)

最佳摄影

最佳美术

└──闵宗泗 (id:1310446)

最佳剪辑

最佳音乐(提名)

└──施万春 (id:1297445)

最佳录音(提名)

└──邓清华 (id:1306718)

最佳服装(提名)

最佳道具(提名)

最佳烟火(提名)

最佳照明(提名)

第10届大众电影百花奖 (1987)

最佳故事片

  1. 合集文件列表:

  2. 1.Dr.Sun.Yat-Sen.1986.Part1.WEB-DL.4K.H265.AAC-HOMEWEB.mp4 1.44GB

  3. 2.Dr.Sun.Yat-Sen.1986.Part2.WEB-DL.4K.H265.AAC-HOMEWEB.mp4 1.12GB


复制代码

  1. ##### MediaInfo ######

  2. General

  3. Complete name : Dr. Sun Yat-Sen 1986 Part1 WEB-DL 4K H265 AAC-Dave.mp4

  4. Format : MPEG-4

  5. Format profile : Base Media

  6. Codec ID : isom (isom/iso2/mp41)

  7. File size : 1.44 GiB

  8. Duration : 1 h 28 min

  9. Overall bit rate : 2 335 kb/s

  10. Writing application : Lavf58.30.100

  11. Video

  12. ID : 1

  13. Format : HEVC

  14. Format/Info : High Efficiency Video Coding

  15. Format profile : [email protected]@Main

  16. Codec ID : hev1

  17. Codec ID/Info : High Efficiency Video Coding

  18. Duration : 1 h 28 min

  19. Bit rate : 2 138 kb/s

  20. Width : 3 840 pixels

  21. Height : 1 752 pixels

  22. Display aspect ratio : 2.2:1

  23. Frame rate mode : Constant

  24. Frame rate : 25.000 FPS

  25. Color space : YUV

  26. Chroma subsampling : 4:2:0

  27. Bit depth : 8 bits

  28. Bits/(Pixel*Frame) : 0.013

  29. Stream size : 1.32 GiB (92%)

  30. Codec configuration box : hvcC

  31. Audio

  32. ID : 2

  33. Format : AAC LC

  34. Format/Info : Advanced Audio Codec Low Complexity

  35. Codec ID : mp4a-40-2

  36. Duration : 1 h 28 min

  37. Bit rate mode : Constant

  38. Bit rate : 192 kb/s

  39. Channel(s) : 2 channels

  40. Channel layout : L R

  41. Sampling rate : 44.1 kHz

  42. Frame rate : 43.066 FPS (1024 SPF)

  43. Compression mode : Lossy

  44. Stream size : 120 MiB (8%)

  45. Default : Yes

  46. Alternate group : 1


复制代码



文件下载


除非特别注明,本文『孙中山[共2部合集][国语配音/中文字幕].Dr.Sun.Yat-Sen.1986.WEB-DL.4K.H265.AAC-HOMEWEB 2.56GB』来源于互联网机器人自动抓取,非本站原创。 浮游电影网不对本文拥有版权,如有侵犯,请联系邮箱:fuyouu#yandex.com[#换成@]投诉。我们会在15个工作日内删除。 但烦请转载时请标明出处:“本文转载于『浮游电影网』,原文地址:https://www.fuyouu.com/21476.html

评论吧骚年!

发表你的见解   

昵称*

E-mail*(建议输入,以便收到博主回复的提示邮件)

验证码*

您可以使用eMule或eMule Mod(Windows)、aMule(Win、Linux、Mac)等软件下载eD2k链接。。
eMule收藏集(.emulecollection)文件是您选中的所有链接的列表文件。eMule可以直接下载它们。
按住SHIFT键选择可以选中多个选择框。
可用文件名和大小选择器来选择文件。
文件名选择器帮您根据文件名称或后缀来选择文件。不分大小写。
符号使用:
和:空格( )、+
不包含:-
或:|
转义:一对英文引号("");
匹配开头:^
匹配结尾:$
例如:
选中所有名称中包含有“eMule”或“0.49c”字眼,但不包含有“exe”字眼的:emule|0.49c -exe
选中所有名称的开头是“eMule”,结尾是“0.49c”的:^emule 0.49c$
选中所有名称中带有“eMule 0.49c”的(必须是“eMule 0.49c”,中间没有别的字符,不能是“eMule fake 0.49c”),需要转义:"emule 0.49c"
大小选择器帮您根据文件大小选择文件。