当前位置: 首页 >> 欧美电影 >> 小精灵[繁英字幕].Gremlins.1984.UHD.BluRay.2160p.DTS-HD.MA.5.1.x265.10bit.HDR-ALT 22.03GB >> 正文

小精灵[繁英字幕].Gremlins.1984.UHD.BluRay.2160p.DTS-HD.MA.5.1.x265.10bit.HDR-ALT 22.03GB

2022年04月19日 22:33:33     电影发布:来源于网络     电影分类:欧美电影     评论(0)    

小精灵[繁英字幕].Gremlins.1984.UHD.BluRay.2160p.DTS HD.MA.5.1.x265.10bit.HDR ALT 22.03GB  欧美电影  第1张

◎译 名 小精灵 / 捣蛋鬼 / 小魔怪

◎片 名 Gremlins

◎年 代 1984

◎产 地 美国

◎类 别 喜剧 / 恐怖 / 奇幻

◎语 言 英语 / 西班牙语

◎上映日期 1984-06-08

◎IMDb链接 https://www.imdb.com/title/tt0087363/

◎豆瓣评分 7.1/10 (2669人评价)

◎豆瓣链接 https://movie.douban.com/subject/1296186/

◎片 长 106 分钟

◎导 演 乔·丹特 Joe Dante (id:1036597)

◎编 剧 克里斯·哥伦布 Chris Columbus (id:1049716)

◎演 员 霍伊特·阿克斯顿 Hoyt Axton (id:1000426)

约翰·路易 John Louie (id:1118589)

陆锡麒 Keye Luke (id:1019164)

唐·斯蒂尔 Don Steele (id:1000829)

斯科特·布兰迪 Scott Brady (id:1049977)

科里·费尔德曼 Corey Feldman (id:1009240)

小哈里·凯瑞 Harry Carey Jr. (id:1048213)

扎克·加利根 Zach Galligan (id:1007086)

迪克·米勒 Dick Miller (id:1016710)

菲比·凯茨 Phoebe Cates (id:1009292)

波莉·霍利德 Polly Holliday (id:1094462)

唐纳德·埃尔森 Donald Elson (id:1089918)

贝琳达·巴拉斯基 Belinda Balaski (id:1059646)

玛什茹 Mushroom (id:1442214)

祖德·莱茵霍尔德 Judge Reinhold (id:1019067)

凯瑟琳·肯尼迪 Kathleen Kennedy (id:1019168)

迈克尔·芬内尔 Michael Finnell (id:1283752)

杰瑞·高德史密斯 Jerry Goldsmith (id:1007116)

蒂娜·赫希 Tina Hirsch (id:1286682)

詹姆斯·H·斯宾塞 James H. Spencer (id:1298136)

斯蒂芬·诺林顿 Stephen Norrington (id:1293293)

Cheri Ruff Cheri Ruff (id:1296306)

克里斯·瓦拉斯 Chris Walas (id:1300275)

Greg LaCava Greg LaCava (id:1289202)

Carol Green Carol Green (id:1285357)

Tom St. Amand Tom St. Amand (id:1298210)

罗科·焦弗雷 Rocco Gioffre (id:1284912)

◎简 介

比利之父伦德路经一家古董店,看中一只灵巧的小精灵,想送给比利当圣诞礼物,店主老翁坚持不卖,但是老翁的孙子偷偷将小精灵卖给伦德,一连串不幸的事情就此展开。

  1. ##### MediaInfo ######

  2. General

  3. Unique ID : 261356827610664914069859444505686603123 (0xC49F7E79D591DC2B177A79898ED07573)

  4. Complete name : Gremlins.1984.UHD.BluRay.2160p.DTS-HD.MA.5.1.x265.10bit.HDR-BeiTai.mkv

  5. Format : Matroska

  6. Format version : Version 4

  7. File size : 22.0 GiB

  8. Duration : 1 h 46 min

  9. Overall bit rate mode : Variable

  10. Overall bit rate : 29.7 Mb/s

  11. Encoded date : UTC 2022-04-17 10:31:09

  12. Writing application : mkvmerge v49.0.0 ('Sick Of Losing Soulmates') 64-bit

  13. Writing library : libebml v1.4.0 + libmatroska v1.6.1

  14. Video

  15. ID : 1

  16. Format : HEVC

  17. Format/Info : High Efficiency Video Coding

  18. Format profile : Main [email protected]@High

  19. HDR format : SMPTE ST 2086, HDR10 compatible

  20. Codec ID : V_MPEGH/ISO/HEVC

  21. Duration : 1 h 46 min

  22. Bit rate : 25.0 Mb/s

  23. Width : 3 840 pixels

  24. Height : 2 160 pixels

  25. Display aspect ratio : 16:9

  26. Frame rate mode : Constant

  27. Frame rate : 23.976 (24000/1001/53354) FPS

  28. Color space : YUV

  29. Chroma subsampling : 4:2:0 (Type 2)

  30. Bit depth : 10 bits

  31. Bits/(Pixel*Frame) : 0.126

  32. Stream size : 18.5 GiB (84%)

  33. Title : HEVC, [email protected]@High, 24/1.001 fps @ 24998 kbps

  34. Writing library : x265 3.5+36-1f2c8da77:[Windows][GCC 11.2.0][64 bit] 10bit

  35. Encoding settings : cpuid=533541111039 / frame-threads=4 / numa-pools=20 / wpp / pmode / pme / no-psnr / no-ssim / log-level=2 / input-csp=1 / input-res=3840x2160 / interlace=0 / total-frames=152792 / level-idc=51 / high-tier=1 / uhd-bd=0 / ref=4 / no-allow-non-conformance / repeat-headers / annexb / no-aud / no-eob / no-eos / hrd / info / hash=0 / no-temporal-layers / no-open-gop / min-keyint=24 / keyint=240 / gop-lookahead=0 / bframes=8 / b-adapt=2 / b-pyramid / bframe-bias=0 / rc-lookahead=25 / lookahead-slices=0 / NTMzNTQ=uuDQuD2mJt9fsCf / scenecut=40 / no-hist-scenecut / radl=0 / no-splice / no-intra-refresh / ctu=64 / min-cu-size=8 / no-rect / no-amp / max-tu-size=32 / tu-inter-depth=3 / tu-intra-depth=3 / limit-tu=4 / rdoq-level=2 / dynamic-rd=0.00 / no-ssim-rd / signhide / no-tskip / nr-intra=0 / nr-inter=0 / no-constrained-intra / no-strong-intra-smoothing / max-merge=4 / limit-refs=1 / limit-modes / me=3 / subme=4 / merange=57 / temporal-mvp / no-frame-dup / no-hme / weightp / weightb / no-analyze-src-pics / deblock=-3:-3 / no-sao / no-sao-non-deblock / rd=6 / selective-sao=0 / no-early-skip / rskip / no-fast-intra / no-tskip-fast / no-cu-lossless / b-intra / no-splitrd-skip / rdpenalty=0 / psy-rd=2.00 / psy-rdoq=1.00 / no-rd-refine / no-lossless / cbqpoffs=0 / crqpoffs=0 / rc=crf / crf=21.5 / qcomp=0.65 / qpstep=4 / stats-write=0 / stats-read=0 / vbv-maxrate=160000 / vbv-bufsize=160000 / vbv-init=0.9 / min-vbv-fullness=50.0 / max-vbv-fullness=80.0 / crf-max=0.0 / crf-min=0.0 / ipratio=1.30 / pbratio=1.20 / aq-mode=3 / aq-strength=0.85 / cutree / zone-count=0 / no-strict-cbr / qg-size=32 / no-rc-grain / qpmax=69 / qpmin=0 / no-const-vbv / sar=1 / overscan=0 / videoformat=5 / range=0 / colorprim=9 / transfer=16 / colormatrix=9 / chromaloc=1 / chromaloc-top=2 / chromaloc-bottom=2 / display-window=0 / master-display=G(13250,34500)B(7500,3000)R(34000,16000)WP(15635,16450)L(40000000,50) / cll=1193,97 / min-luma=0 / max-luma=1023 / log2-max-poc-lsb=8 / vui-timing-info / vui-hrd-info / slices=1 / no-opt-qp-pps / no-opt-ref-list-length-pps / no-multi-pass-opt-rps / scenecut-bias=0.05 / hist-threshold=0.03 / no-opt-cu-delta-qp / no-aq-motion / hdr10 / hdr10-opt / no-dhdr10-opt / no-idr-recovery-sei / analysis-reuse-level=0 / analysis-save-reuse-level=0 / analysis-load-reuse-level=0 / scale-factor=0 / refine-intra=0 / refine-inter=0 / refine-mv=1 / refine-ctu-distortion=0 / no-limit-sao / ctu-info=0 / no-lowpass-dct / refine-analysis-type=0 / copy-pic=1 / max-ausize-factor=1.0 / no-dynamic-refine / no-single-sei / no-hevc-aq / no-svt / no-field / qp-adaptation-range=1.00 / scenecut-aware-qp=0conformance-window-offsets / right=0 / bottom=0 / NTMzNTQ= / decoder-max-rate=0 / no-vbv-live-multi-pass

  36. Language : English

  37. Default : Yes

  38. Forced : No

  39. Color range : Limited

  40. Color primaries : BT.2020

  41. Transfer characteristics : PQ

  42. Matrix coefficients : BT.2020 non-constant

  43. Mastering display color primaries : Display P3

  44. Mastering display luminance : min: 0.0050 cd/m2, max: 4000 cd/m2

  45. Maximum Content Light Level : 1193 cd/m2

  46. Maximum Frame-Average Light Level : 97 cd/m2

  47. Audio #1

  48. ID : 2

  49. Format : DTS XLL

  50. Format/Info : Digital Theater Systems

  51. Commercial name : DTS-HD Master Audio

  52. Codec ID : A_DTS

  53. Duration : 1 h 46 min

  54. Bit rate mode : Variable

  55. Bit rate : 4 127 kb/s

  56. Channel(s) : 6 channels

  57. Channel layout : C L R Ls Rs LFE

  58. Sampling rate : 48.0 kHz

  59. Frame rate : 93.750 FPS (512 SPF)

  60. Bit depth : 24 bits

  61. Compression mode : Lossless

  62. Stream size : 3.06 GiB (14%)

  63. Title : English DTS-HD Master Audio 5.1 @ 4126 kbps

  64. Language : English

  65. Default : Yes

  66. Forced : No

  67. Audio #2

  68. ID : 3

  69. Format : AC-3

  70. Format/Info : Audio Coding 3

  71. Commercial name : Dolby Digital

  72. Codec ID : A_AC3

  73. Duration : 1 h 46 min

  74. Bit rate mode : Constant

  75. Bit rate : 192 kb/s

  76. Channel(s) : 2 channels

  77. Channel layout : L R

  78. Sampling rate : 48.0 kHz

  79. Frame rate : 31.250 FPS (1536 SPF)

  80. Compression mode : Lossy

  81. Stream size : 146 MiB (1%)

  82. Title : English Dolby Digital Audio 2.0 @ 192 kbps Commentary 1

  83. Language : English

  84. Service kind : Complete Main

  85. Default : No

  86. Forced : No

  87. Audio #3

  88. ID : 4

  89. Format : AC-3

  90. Format/Info : Audio Coding 3

  91. Commercial name : Dolby Digital

  92. Codec ID : A_AC3

  93. Duration : 1 h 46 min

  94. Bit rate mode : Constant

  95. Bit rate : 192 kb/s

  96. Channel(s) : 2 channels

  97. Channel layout : L R

  98. Sampling rate : 48.0 kHz

  99. Frame rate : 31.250 FPS (1536 SPF)

  100. Compression mode : Lossy

  101. Stream size : 146 MiB (1%)

  102. Title : English Dolby Digital Audio 2.0 @ 192 kbps Commentary 2

  103. Language : English

  104. Service kind : Complete Main

  105. Default : No

  106. Forced : No

  107. Text #1

  108. ID : 5

  109. Format : PGS

  110. Codec ID : S_HDMV/PGS

  111. Codec ID/Info : Picture based subtitle format used on BDs/HD-DVDs

  112. Duration : 1 h 45 min

  113. Bit rate : 28.9 kb/s

  114. Count of elements : 2676

  115. Stream size : 21.9 MiB (0%)

  116. Title : Eng/SUP

  117. Language : English

  118. Default : No

  119. Forced : No

  120. Text #2

  121. ID : 6

  122. Format : PGS

  123. Codec ID : S_HDMV/PGS

  124. Codec ID/Info : Picture based subtitle format used on BDs/HD-DVDs

  125. Duration : 1 h 45 min

  126. Bit rate : 21.2 kb/s

  127. Count of elements : 1922

  128. Stream size : 16.0 MiB (0%)

  129. Title : Cht/SUP 原盘繁体

  130. Language : Chinese

  131. Default : Yes

  132. Forced : No

  133. Text #3

  134. ID : 7

  135. Format : PGS

  136. Codec ID : S_HDMV/PGS

  137. Codec ID/Info : Picture based subtitle format used on BDs/HD-DVDs

  138. Duration : 1 h 46 min

  139. Bit rate : 59.0 kb/s

  140. Count of elements : 4088

  141. Stream size : 44.8 MiB (0%)

  142. Title : Cht/SUP 原盘繁体 Commentary 1

  143. Language : Chinese

  144. Default : No

  145. Forced : No

  146. Text #4

  147. ID : 8

  148. Format : PGS

  149. Codec ID : S_HDMV/PGS

  150. Codec ID/Info : Picture based subtitle format used on BDs/HD-DVDs

  151. Duration : 1 h 45 min

  152. Bit rate : 65.4 kb/s

  153. Count of elements : 4446

  154. Stream size : 49.5 MiB (0%)

  155. Title : Cht/SUP 原盘繁体 Commentary 2

  156. Language : Chinese

  157. Default : No

  158. Forced : No

  159. Menu

  160. 00:00:00.000 : en:第 01 章

  161. 00:05:35.126 : en:第 02 章

  162. 00:08:28.174 : en:第 03 章

  163. 00:13:22.343 : en:第 04 章

  164. 00:15:01.150 : en:第 05 章

  165. 00:19:45.142 : en:第 06 章

  166. 00:22:47.074 : en:第 07 章

  167. 00:32:41.209 : en:第 08 章

  168. 00:37:57.942 : en:第 09 章

  169. 00:40:57.080 : en:第 10 章

  170. 00:44:33.421 : en:第 11 章

  171. 00:51:13.696 : en:第 12 章

  172. 00:54:11.498 : en:第 13 章

  173. 00:59:08.211 : en:第 14 章

  174. 01:01:38.320 : en:第 15 章

  175. 01:02:47.597 : en:第 16 章

  176. 01:05:12.492 : en:第 17 章

  177. 01:07:35.176 : en:第 18 章

  178. 01:09:57.402 : en:第 19 章

  179. 01:13:07.883 : en:第 20 章

  180. 01:18:09.226 : en:第 21 章

  181. 01:21:03.609 : en:第 22 章

  182. 01:27:25.115 : en:第 23 章

  183. 01:33:12.212 : en:第 24 章

  184. 01:35:06.659 : en:第 25 章

  185. 01:38:12.136 : en:第 26 章

  186. 01:42:07.246 : en:第 27 章


复制代码



文件下载


除非特别注明,本文『小精灵[繁英字幕].Gremlins.1984.UHD.BluRay.2160p.DTS-HD.MA.5.1.x265.10bit.HDR-ALT 22.03GB』来源于互联网机器人自动抓取,非本站原创。 浮游电影网不对本文拥有版权,如有侵犯,请联系邮箱:fuyouu#yandex.com[#换成@]投诉。我们会在15个工作日内删除。 但烦请转载时请标明出处:“本文转载于『浮游电影网』,原文地址:https://www.fuyouu.com/21475.html

评论吧骚年!

发表你的见解   

昵称*

E-mail*(建议输入,以便收到博主回复的提示邮件)

验证码*

您可以使用eMule或eMule Mod(Windows)、aMule(Win、Linux、Mac)等软件下载eD2k链接。。
eMule收藏集(.emulecollection)文件是您选中的所有链接的列表文件。eMule可以直接下载它们。
按住SHIFT键选择可以选中多个选择框。
可用文件名和大小选择器来选择文件。
文件名选择器帮您根据文件名称或后缀来选择文件。不分大小写。
符号使用:
和:空格( )、+
不包含:-
或:|
转义:一对英文引号("");
匹配开头:^
匹配结尾:$
例如:
选中所有名称中包含有“eMule”或“0.49c”字眼,但不包含有“exe”字眼的:emule|0.49c -exe
选中所有名称的开头是“eMule”,结尾是“0.49c”的:^emule 0.49c$
选中所有名称中带有“eMule 0.49c”的(必须是“eMule 0.49c”,中间没有别的字符,不能是“eMule fake 0.49c”),需要转义:"emule 0.49c"
大小选择器帮您根据文件大小选择文件。