当前位置: 首页 >> 国产电影 >> 大捷[国语配音/中文字幕].Great.Victory.1995.WEB-DL.1080p.H264.AAC-HOMEWEB 2.31GB >> 正文

大捷[国语配音/中文字幕].Great.Victory.1995.WEB-DL.1080p.H264.AAC-HOMEWEB 2.31GB

2022年04月19日 22:32:38     电影发布:来源于网络     电影分类:国产电影     评论(0)    

大捷[国语配音/中文字幕].Great.Victory.1995.WEB DL.1080p.H264.AAC HOMEWEB 2.31GB  国产电影  第1张

◎译 名 大捷

◎年 代 1995

◎产 地 中国大陆

◎类 别 战争

◎语 言 汉语普通话

◎上映日期 1995

◎IMDb链接 https://www.imdb.com/title/tt0338893/

◎豆瓣评分 8.6/10 (3594人评价)

◎豆瓣链接 https://movie.douban.com/subject/2364059/

◎片 长 104分钟

◎导 演 吴天戈 Tiange Wu (id:1318057)

◎编 剧 吴贻弓 Yigong Wu (id:1039218)

周梅森 Meisen Zhou (id:1318499)

◎演 员 雷恪生 Kesheng Lei (id:1274724)

袁苑 Yuan Yuan (id:1301562)

赵胜胜 Shengsheng Zhao (id:1353687)

周国宾 Guobin Zhou (id:1356316)

宫晓瑄 Xiaoxuan Gong (id:1275543)

赵君 Jun Zhao (id:1287962)

解衍 Yan Xie (id:1305338)

谭增卫 Zengwei Tan (id:1331287)

毕远晋 Yuanjin Bi (id:1318059)

俞建国 Jianguo Yu (id:1366754)

朱雷 Lei Zhu (id:1329793)

叶小铿 Xiaokeng Ye (id:1371021)

何麟 Lin He (id:1318485)

祁明远 Mingyuan Qi (id:1353352)

翁国钧 Guojun Weng (id:1372078)

苏隽杰 Junjie Su (id:1311278)

徐茂鸿 Maohong Xu (id:1453204)

薛健纳 Jianna Xue (id:1347958)

张福才 Fucai Zhang (id:1418172)

徐复璟 Fujing Xu (id:1398667)

◎简 介

抗日战争时期,有一支由三教九流人员组成的杂牌部队,号称新编第三团,团长为原县长段仁义(雷恪生 饰)。为调教这群乌合之众,国民党方面派来两个职业军人,参谋长方向公(袁苑 饰)和谭参谋(谭增卫 饰),并配备报务员白洁芬(宫主 饰)随队与上级联系。由于部队人员组成乌七八糟,各种违纪现象层出不穷,经肃纪整治稍有起色。大敌当前,国军主力撤退,命令新三团留守抵抗,后果可想而知。敌强我弱,方向公急电上峰求援,上峰找借口不予理会,新三团只好孤军奋战,伤亡惨重。段仁义安排上面派来的三人撤走,不料途中遭督战队截杀,仅白洁芬只身逃回。段仁义宣布解散部队,让大家各自逃生,却遭同党伐异......

  1. ##### MediaInfo ######

  2. General

  3. Complete name : Great Victory 1995 WEB-DL 1080p H264 AAC-Dave.mp4

  4. Format : MPEG-4

  5. Format profile : Base Media

  6. Codec ID : isom (isom/iso2/avc1/mp41)

  7. File size : 2.31 GiB

  8. Duration : 1 h 39 min

  9. Overall bit rate mode : Variable

  10. Overall bit rate : 3 315 kb/s

  11. Writing application : Lavf59.16.100

  12. Video

  13. ID : 1

  14. Format : AVC

  15. Format/Info : Advanced Video Codec

  16. Format profile : [email protected]

  17. Format settings : CABAC / 8 Ref Frames

  18. Format settings, CABAC : Yes

  19. Format settings, Reference frames : 8 frames

  20. Codec ID : avc1

  21. Codec ID/Info : Advanced Video Coding

  22. Duration : 1 h 39 min

  23. Source duration : 1 h 39 min

  24. Bit rate : 2 919 kb/s

  25. Maximum bit rate : 3 054 kb/s

  26. Width : 1 920 pixels

  27. Height : 1 280 pixels

  28. Display aspect ratio : 3:2

  29. Original display aspect ratio : 3:2

  30. Frame rate mode : Constant

  31. Frame rate : 25.000 FPS

  32. Color space : YUV

  33. Chroma subsampling : 4:2:0

  34. Bit depth : 8 bits

  35. Scan type : Progressive

  36. Bits/(Pixel*Frame) : 0.048

  37. Stream size : 2.04 GiB (88%)

  38. Source stream size : 2.13 GiB (92%)

  39. Color range : Limited

  40. Color primaries : BT.709

  41. Transfer characteristics : BT.709

  42. Matrix coefficients : BT.709

  43. Codec configuration box : avcC

  44. Audio

  45. ID : 2

  46. Format : AAC LC

  47. Format/Info : Advanced Audio Codec Low Complexity

  48. Codec ID : mp4a-40-2

  49. Duration : 1 h 39 min

  50. Bit rate mode : Variable

  51. Bit rate : 256 kb/s / 256 kb/s

  52. Channel(s) : 2 channels

  53. Channel layout : L R

  54. Sampling rate : 44.1 kHz

  55. Frame rate : 43.066 FPS (1024 SPF)

  56. Compression mode : Lossy

  57. Stream size : 181 MiB (8%)

  58. Default : Yes

  59. Alternate group : 1


复制代码



文件下载


除非特别注明,本文『大捷[国语配音/中文字幕].Great.Victory.1995.WEB-DL.1080p.H264.AAC-HOMEWEB 2.31GB』来源于互联网机器人自动抓取,非本站原创。 浮游电影网不对本文拥有版权,如有侵犯,请联系邮箱:fuyouu#yandex.com[#换成@]投诉。我们会在15个工作日内删除。 但烦请转载时请标明出处:“本文转载于『浮游电影网』,原文地址:https://www.fuyouu.com/21474.html

评论吧骚年!

发表你的见解   

昵称*

E-mail*(建议输入,以便收到博主回复的提示邮件)

验证码*

您可以使用eMule或eMule Mod(Windows)、aMule(Win、Linux、Mac)等软件下载eD2k链接。。
eMule收藏集(.emulecollection)文件是您选中的所有链接的列表文件。eMule可以直接下载它们。
按住SHIFT键选择可以选中多个选择框。
可用文件名和大小选择器来选择文件。
文件名选择器帮您根据文件名称或后缀来选择文件。不分大小写。
符号使用:
和:空格( )、+
不包含:-
或:|
转义:一对英文引号("");
匹配开头:^
匹配结尾:$
例如:
选中所有名称中包含有“eMule”或“0.49c”字眼,但不包含有“exe”字眼的:emule|0.49c -exe
选中所有名称的开头是“eMule”,结尾是“0.49c”的:^emule 0.49c$
选中所有名称中带有“eMule 0.49c”的(必须是“eMule 0.49c”,中间没有别的字符,不能是“eMule fake 0.49c”),需要转义:"emule 0.49c"
大小选择器帮您根据文件大小选择文件。