当前位置: 首页 >> 港台电影 >> 哗鬼旅行团[国语配音/中文字幕].Forced.Nightmare.1992.WEB-DL.1080p.H264.AAC-HOMEWEB 1.90GB >> 正文

哗鬼旅行团[国语配音/中文字幕].Forced.Nightmare.1992.WEB-DL.1080p.H264.AAC-HOMEWEB 1.90GB

2022年04月19日 22:31:49     电影发布:来源于网络     电影分类:港台电影     评论(0)    

哗鬼旅行团[国语配音/中文字幕].Forced.Nightmare.1992.WEB DL.1080p.H264.AAC HOMEWEB 1.90GB  港台电影  第1张

◎译 名 哗鬼旅行团 / 猛鬼旅行团 / Forced Nightmare

◎年 代 1992

◎产 地 中国香港

◎类 别 喜剧 / 恐怖

◎语 言 粤语

◎上映日期 1992-03-26

◎IMDb链接 https://www.imdb.com/title/tt0104456/

◎豆瓣评分 6.6/10 (5089人评价)

◎豆瓣链接 https://movie.douban.com/subject/1301257/

◎片 长 100分钟

◎导 演 刘仕裕 Sze Yu Lau (id:1336366)

◎编 剧 张华标 Wah Bill Cheung (id:1317488)

薛家华 Ka Wah Sit (id:1351100)

方世强 Sai-Keung Fong (id:1323259)

◎演 员 林正英 Ching-Ying Lam (id:1016823)

吴君如 Sandra Ng (id:1127819)

邱建国 Jianguo Qiu (id:1324739)

曹查理 Charlie Cho (id:1275320)

胡枫 Fung Woo (id:1313733)

熊欣欣 Xinxin Xiong (id:1033090)

黄一飞 Yut Fei Wong (id:1301215)

李文泰 Wen Tai Li (id:1346070)

罗维 Wei Lo (id:1328734)

于芷蔚 Chi-Wai Yu (id:1338927)

成奎安 Fui-On Shing (id:1141665)

黄文云 Wen Yun Huang (id:1416801)

罗礼贤 Bruce Law (id:1289542)

◎简 介

潮州姑娘李嘉玲(吴君如 饰)拥有特异功能,她经常帮助邻里乡亲解决各种疑难问题,在乡村野里颇有名气。某天她被高官以游客的身份派往九龙执行一项秘密任务,她所乘坐的巴士因司机招惹了孤魂野鬼而遭到报复,车毁人亡。鬼魂纷纷钻入死者体内,唯嘉玲一息尚存幸免遇难。众鬼连同嘉玲乘车继续向九龙前进。

计划与嘉玲接头的一眉道长(林正英 饰)路遇众鬼所乘之车,情知不好,尾随跟踪,终与嘉玲接头。道长告诫她和其他旅客下榻的宾馆有鬼,嘉玲始终不信,直到……

  1. ##### MediaInfo ######

  2. General

  3. Complete name : Forced Nightmare 1992 WEB-DL 1080p H264 AAC-Dave.mp4

  4. Format : MPEG-4

  5. Format profile : Base Media

  6. Codec ID : isom (isom/iso2/avc1/mp41)

  7. File size : 1.90 GiB

  8. Duration : 1 h 21 min

  9. Overall bit rate mode : Variable

  10. Overall bit rate : 3 335 kb/s

  11. Writing application : Lavf59.16.100

  12. Video

  13. ID : 1

  14. Format : AVC

  15. Format/Info : Advanced Video Codec

  16. Format profile : [email protected]

  17. Format settings : CABAC / 4 Ref Frames

  18. Format settings, CABAC : Yes

  19. Format settings, Reference frames : 4 frames

  20. Codec ID : avc1

  21. Codec ID/Info : Advanced Video Coding

  22. Duration : 1 h 21 min

  23. Source duration : 1 h 21 min

  24. Bit rate : 2 938 kb/s

  25. Maximum bit rate : 3 076 kb/s

  26. Width : 1 920 pixels

  27. Height : 1 080 pixels

  28. Display aspect ratio : 16:9

  29. Frame rate mode : Constant

  30. Frame rate : 25.000 FPS

  31. Color space : YUV

  32. Chroma subsampling : 4:2:0

  33. Bit depth : 8 bits

  34. Scan type : Progressive

  35. Bits/(Pixel*Frame) : 0.057

  36. Stream size : 1.68 GiB (88%)

  37. Source stream size : 1.76 GiB (92%)

  38. Color range : Limited

  39. Color primaries : BT.709

  40. Transfer characteristics : BT.709

  41. Matrix coefficients : BT.709

  42. Codec configuration box : avcC

  43. Audio

  44. ID : 2

  45. Format : AAC LC

  46. Format/Info : Advanced Audio Codec Low Complexity

  47. Codec ID : mp4a-40-2

  48. Duration : 1 h 21 min

  49. Bit rate mode : Variable

  50. Bit rate : 256 kb/s / 256 kb/s

  51. Channel(s) : 2 channels

  52. Channel layout : L R

  53. Sampling rate : 44.1 kHz

  54. Frame rate : 43.066 FPS (1024 SPF)

  55. Compression mode : Lossy

  56. Stream size : 148 MiB (8%)

  57. Default : Yes

  58. Alternate group : 1


复制代码



文件下载


除非特别注明,本文『哗鬼旅行团[国语配音/中文字幕].Forced.Nightmare.1992.WEB-DL.1080p.H264.AAC-HOMEWEB 1.90GB』来源于互联网机器人自动抓取,非本站原创。 浮游电影网不对本文拥有版权,如有侵犯,请联系邮箱:fuyouu#yandex.com[#换成@]投诉。我们会在15个工作日内删除。 但烦请转载时请标明出处:“本文转载于『浮游电影网』,原文地址:https://www.fuyouu.com/21473.html

评论吧骚年!

发表你的见解   

昵称*

E-mail*(建议输入,以便收到博主回复的提示邮件)

验证码*

您可以使用eMule或eMule Mod(Windows)、aMule(Win、Linux、Mac)等软件下载eD2k链接。。
eMule收藏集(.emulecollection)文件是您选中的所有链接的列表文件。eMule可以直接下载它们。
按住SHIFT键选择可以选中多个选择框。
可用文件名和大小选择器来选择文件。
文件名选择器帮您根据文件名称或后缀来选择文件。不分大小写。
符号使用:
和:空格( )、+
不包含:-
或:|
转义:一对英文引号("");
匹配开头:^
匹配结尾:$
例如:
选中所有名称中包含有“eMule”或“0.49c”字眼,但不包含有“exe”字眼的:emule|0.49c -exe
选中所有名称的开头是“eMule”,结尾是“0.49c”的:^emule 0.49c$
选中所有名称中带有“eMule 0.49c”的(必须是“eMule 0.49c”,中间没有别的字符,不能是“eMule fake 0.49c”),需要转义:"emule 0.49c"
大小选择器帮您根据文件大小选择文件。