当前位置: 首页 >> 国产电影 >> 白银帝国[国语音轨/简繁字幕].Empire.of.Silver.2009.1080p.BluRay.DTS.x265-10bit-ENTHD 9.07GB >> 正文

白银帝国[国语音轨/简繁字幕].Empire.of.Silver.2009.1080p.BluRay.DTS.x265-10bit-ENTHD 9.07GB

2022年04月19日 22:30:53     电影发布:来源于网络     电影分类:国产电影     评论(0)    

白银帝国[国语音轨/简繁字幕].Empire.of.Silver.2009.1080p.BluRay.DTS.x265 10bit ENTHD 9.07GB  国产电影  第1张

◎译 名 白银帝国 / Empire of Silver

◎年 代 2009

◎产 地 中国大陆 / 中国台湾 / 中国香港

◎类 别 剧情 / 历史 / 古装

◎语 言 普通话 / 国语 / 英语

◎上映日期 2009-08-21(中国大陆)

◎IMDb链接 https://www.imdb.com/title/tt1362045/

◎豆瓣评分 6.3/10 (37458人评价)

◎豆瓣链接 https://movie.douban.com/subject/3445526/

◎片 长 116分钟

◎导 演 姚树华 Christina Yao (id:1275403)

◎编 剧 姚树华 Christina Yao (id:1275403)

成一 Cheng Yi (id:1433498)

◎演 员 郭富城 Aaron Kwok (id:1041390)

郝蕾 Lei Hao (id:1042568)

张铁林 Tielin Zhang (id:1020586)

詹妮弗·提莉 Jennifer Tilly (id:1049519)

金士杰 Shih-Chieh King (id:1275482)

恬妞 Niu Tien (id:1006142)

丁志城 Zhicheng Ding (id:1314198)

雷镇语 Zhenyu Lei (id:1317690)

吕中 Zhong Lü (id:1274711)

李依晓 Xiaoyi Li (id:1314761)

刘仲元 Zhongyuan Liu (id:1313753)

曹操 Jonathan Kos-Read (id:1274972)

常蓝天 Lantian Chang (id:1313314)

侯桐江 Tongjiang Hou (id:1326724)

王德顺 Deshun Wang (id:1316770)

焦雄屏 Peggy Chiao (id:1314699)

杰瑞米·托马斯 Jeremy Thomas (id:1023186)

苏聪 Cong Su (id:1298603)

潘耀明 Anthony Pun (id:1307639)

廖庆松 Ching-Song Liao (id:1312523)

张一凡 Yifan Zhang (id:1324509)

Humphrey Dixon Humphrey Dixon (id:1282495)

张季平 Chi Ping Chang (id:1330599)

奚仲文 Chung-Man Hai (id:1275027)

张叔平 William Chang (id:1274369)

谭英群 Popeye Ying Kwan Tam (id:1330601)

文润铃 Yun-Ling Man (id:1290093)

李丛喜 Congxi Li (id:1331422)

陶经 Jing Tao (id:1298913)

何威 Wei He (id:1304355)

方丽 Li Fang (id:1464610)

Gary J. Brown Gary J. Brown (id:1306955)

董玮 Wai Tung (id:1299617)

林海 Hai Lin (id:1359898)

黄海 Hai Huang (id:1401245)

◎简 介

本片以清末民初富可敌国的山西天成元票号的传承为主线,再现了“中国华尔街”金融业的百年兴衰。故事以一个风烛残年老人的回忆贯穿全片:天成元掌门人康老爷(张铁林 饰)膝下共有四子,但老大天生罹患聋哑残疾,老二生性莽撞好斗在一次意外中下肢瘫痪,老四因新婚娇妻在天津被劫惨死而疯癫,只剩下老三(郭富城 饰)可以继承祖宗家业。但康三却对父亲抱有深深的怨恨,原因是他夺走了自己昔日恋人(郝蕾 饰)。

康老爷希望她可以为康家添丁,继承香火,但是她誓死不从。康夫人曾多次对康三表露心迹,但后者始终对继母礼让三分,不敢越雷池半步。康老爷见北京分号戴掌柜才智过人,遂恩威并用计赚邱掌柜(丁志诚 饰),令其死心塌地辅佐少主,然而康三心中却另有打算……

本片根据成一的小说《白银谷》改编。

◎获奖情况 (共9项)

第29届香港电影金像奖 (2010)

最佳摄影(提名)

└──潘耀明 (id:1307639)

最佳美术指导(提名)

最佳服装造型设计(提名)

第12届上海国际电影节 (2009)

金爵奖 最佳影片(提名)

└──姚树华 (id:1275403)

金爵奖 评审团奖

└──姚树华 (id:1275403)

电影频道传媒大奖 最佳影片(提名)

└──姚树华 (id:1275403)

第27届中国电影金鸡奖 (2009)

最佳摄影(提名)

└──潘耀明 (id:1307639)

第13届中国电影华表奖 (2009)

优秀境外华裔男演员奖(提名)

└──郭富城 (id:1041390)

优秀合拍片奖(提名)

  1. ##### MediaInfo ######

  2. General

  3. Unique ID : 24798883772486950739547956630368108266 (0x12A8175E6B7517FD2C3214FD52D53EEA)

  4. Complete name : Empire.of.Silver.2009.1080p.BluRay.DTS.x265-10bit-HDS.mkv

  5. Format : Matroska

  6. Format version : Version 4

  7. File size : 9.07 GiB

  8. Duration : 1 h 53 min

  9. Overall bit rate : 11.5 Mb/s

  10. Movie name : Empire of Silver 2009 1080p BluRay DTS x265-10bit-HDS

  11. Encoded date : UTC 2022-04-18 00:27:33

  12. Writing application : mkvmerge v67.0.0 ('Under Stars') 64-bit

  13. Writing library : libebml v1.4.2 + libmatroska v1.6.4

  14. Video

  15. ID : 1

  16. Format : HEVC

  17. Format/Info : High Efficiency Video Coding

  18. Format profile : Main [email protected]@High

  19. Codec ID : V_MPEGH/ISO/HEVC

  20. Duration : 1 h 53 min

  21. Bit rate : 9 949 kb/s

  22. Width : 1 920 pixels

  23. Height : 816 pixels

  24. Display aspect ratio : 2.35:1

  25. Frame rate mode : Constant

  26. Frame rate : 23.976 (24000/1001/53354) FPS

  27. Color space : YUV

  28. Chroma subsampling : 4:2:0

  29. Bit depth : 10 bits

  30. Bits/(Pixel*Frame) : 0.265

  31. Stream size : 7.85 GiB (87%)

  32. Title : @HDSky

  33. Writing library : x265 - H.265/HEVC codec

  34. Default : Yes

  35. Forced : No

  36. Audio

  37. ID : 2

  38. Format : DTS

  39. Format/Info : Digital Theater Systems

  40. Codec ID : A_DTS

  41. Duration : 1 h 53 min

  42. Bit rate mode : Constant

  43. Bit rate : 1 509 kb/s

  44. Channel(s) : 6 channels

  45. Channel layout : C L R Ls Rs LFE

  46. Sampling rate : 48.0 kHz

  47. Frame rate : 93.750 FPS (512 SPF)

  48. Bit depth : 24 bits

  49. Compression mode : Lossy

  50. Stream size : 1.19 GiB (13%)

  51. Title : Mandarin

  52. Language : Chinese

  53. Default : Yes

  54. Forced : No

  55. Text #1

  56. ID : 3

  57. Format : PGS

  58. Muxing mode : zlib

  59. Codec ID : S_HDMV/PGS

  60. Codec ID/Info : Picture based subtitle format used on BDs/HD-DVDs

  61. Duration : 1 h 45 min

  62. Bit rate : 19.2 kb/s

  63. Count of elements : 1962

  64. Stream size : 14.5 MiB (0%)

  65. Title : CHS

  66. Language : Chinese

  67. Default : Yes

  68. Forced : No

  69. Text #2

  70. ID : 4

  71. Format : PGS

  72. Muxing mode : zlib

  73. Codec ID : S_HDMV/PGS

  74. Codec ID/Info : Picture based subtitle format used on BDs/HD-DVDs

  75. Duration : 1 h 46 min

  76. Bit rate : 20.2 kb/s

  77. Count of elements : 2064

  78. Stream size : 15.4 MiB (0%)

  79. Title : CHS

  80. Language : Chinese

  81. Default : Yes

  82. Forced : No

  83. Text #3

  84. ID : 5

  85. Format : PGS

  86. Muxing mode : zlib

  87. Codec ID : S_HDMV/PGS

  88. Codec ID/Info : Picture based subtitle format used on BDs/HD-DVDs

  89. Duration : 1 h 46 min

  90. Bit rate : 22.6 kb/s

  91. Count of elements : 2064

  92. Stream size : 17.2 MiB (0%)

  93. Title : CHT

  94. Language : Chinese

  95. Default : Yes

  96. Forced : No

  97. Menu

  98. 00:00:00.000 : en:第 01 章

  99. 00:07:15.477 : en:第 02 章

  100. 00:14:05.470 : en:第 03 章

  101. 00:21:57.107 : en:第 04 章

  102. 00:26:44.144 : en:第 05 章

  103. 00:34:07.337 : en:第 06 章

  104. 00:40:42.273 : en:第 07 章

  105. 00:47:04.488 : en:第 08 章

  106. 00:52:57.257 : en:第 09 章

  107. 01:00:22.160 : en:第 10 章

  108. 01:07:25.124 : en:第 11 章

  109. 01:12:37.395 : en:第 12 章

  110. 01:21:20.167 : en:第 13 章

  111. 01:29:50.343 : en:第 14 章

  112. 01:42:41.197 : en:第 15 章

  113. 01:46:54.241 : en:第 16 章


复制代码



文件下载


除非特别注明,本文『白银帝国[国语音轨/简繁字幕].Empire.of.Silver.2009.1080p.BluRay.DTS.x265-10bit-ENTHD 9.07GB』来源于互联网机器人自动抓取,非本站原创。 浮游电影网不对本文拥有版权,如有侵犯,请联系邮箱:fuyouu#yandex.com[#换成@]投诉。我们会在15个工作日内删除。 但烦请转载时请标明出处:“本文转载于『浮游电影网』,原文地址:https://www.fuyouu.com/21472.html

评论吧骚年!

发表你的见解   

昵称*

E-mail*(建议输入,以便收到博主回复的提示邮件)

验证码*

您可以使用eMule或eMule Mod(Windows)、aMule(Win、Linux、Mac)等软件下载eD2k链接。。
eMule收藏集(.emulecollection)文件是您选中的所有链接的列表文件。eMule可以直接下载它们。
按住SHIFT键选择可以选中多个选择框。
可用文件名和大小选择器来选择文件。
文件名选择器帮您根据文件名称或后缀来选择文件。不分大小写。
符号使用:
和:空格( )、+
不包含:-
或:|
转义:一对英文引号("");
匹配开头:^
匹配结尾:$
例如:
选中所有名称中包含有“eMule”或“0.49c”字眼,但不包含有“exe”字眼的:emule|0.49c -exe
选中所有名称的开头是“eMule”,结尾是“0.49c”的:^emule 0.49c$
选中所有名称中带有“eMule 0.49c”的(必须是“eMule 0.49c”,中间没有别的字符,不能是“eMule fake 0.49c”),需要转义:"emule 0.49c"
大小选择器帮您根据文件大小选择文件。