当前位置: 首页 >> 欧美电影 >> 比尔和泰德畅游鬼门关[简繁英字幕].Bill.and.Teds.Bogus.Journey.1991.BluRay.1080p.DTS-HD.MA5.1.x265.10bit-ALT 11.48GB >> 正文

比尔和泰德畅游鬼门关[简繁英字幕].Bill.and.Teds.Bogus.Journey.1991.BluRay.1080p.DTS-HD.MA5.1.x265.10bit-ALT 11.48GB

2022年04月19日 22:27:27     电影发布:来源于网络     电影分类:欧美电影     评论(0)    

比尔和泰德畅游鬼门关[简繁英字幕].Bill.and.Teds.Bogus.Journey.1991.BluRay.1080p.DTS HD.MA5.1.x265.10bit ALT 11.48GB  欧美电影  第1张

◎译 名 比尔和泰德畅游鬼门关

◎片 名 Bill & Ted's Bogus Journey

◎年 代 1991

◎产 地 美国

◎类 别 喜剧 / 科幻 / 奇幻 / 冒险

◎语 言 英语 / 意大利语 / 俄语

◎上映日期 1991-07-19

◎IMDb链接 https://www.imdb.com/title/tt0101452/

◎豆瓣评分 6.6/10 (1163人评价)

◎豆瓣链接 https://movie.douban.com/subject/1304421/

◎片 长 93 分钟

◎导 演 彼得·休伊特 Peter Hewitt (id:1286563)

◎编 剧 克里斯·马瑟森 Chris Matheson (id:1329769)

艾德·索罗门 Ed Solomon (id:1050173)

Richard Christian Matheson Richard Christian Matheson (id:1028450)

◎演 员 基努·里维斯 Keanu Reeves (id:1008070)

亚历克斯·温特 Alex Winter (id:1009331)

威廉姆·赛德勒 William Sadler (id:1000095)

乔斯·雅克兰德 Joss Ackland (id:1032034)

帕姆·格里尔 Pam Grier (id:1019045)

乔治·卡林 George Carlin (id:1048174)

坦尼娅·纽堡尔德 Tanya Newbould (id:1127873)

Robert Noble Robert Noble (id:1130502)

Candace Mead Candace Mead (id:1125758)

Dennis Ott Dennis Ott (id:1135542)

艾米·斯托克-波因顿 Amy Stock-Poynton (id:1157417)

彼得·休伊特 Peter Hewitt (id:1286563)

Lauren Mead Lauren Mead (id:1124449)

Jim Martin Jim Martin (id:1120758)

小哈尔·兰登 Hal Landon Jr. (id:1111337)

Taj Mahal Taj Mahal (id:1045417)

切尔西·罗斯 Chelcie Ross (id:1041208)

迈克尔钱伯斯 Michael Chambers (id:1040743)

弗兰克·维尔克 Frank Welker (id:1031825)

莱斯 克莱普尔 Les Claypool (id:1028184)

Tim Alexander Tim Alexander (id:1001686)

艾德·索罗门 Ed Solomon (id:1050173)

Arturo Gil Arturo Gil (id:1099102)

Tad Horino Tad Horino (id:1094025)

艾迪·盖尔 Ed Gale (id:1093015)

John Ehrin John Ehrin (id:1089687)

Bruno Falcon Bruno Falcon (id:1085837)

Ed Cambridge Ed Cambridge (id:1077067)

罗伊·布罗克斯史密斯 Roy Brocksmith (id:1072294)

Tom Allard Tom Allard (id:1059916)

Sadler Colley Bakst Sadler Colley Bakst (id:1057314)

特德·菲尔德 Ted Field (id:1018546)

艾德·索罗门 Ed Solomon (id:1050173)

Robert W. Cort Robert W. Cort (id:1281316)

埃文·斯托夫 Erwin Stoff (id:1045363)

Stephen Deutsch Stephen Deutsch (id:1084501)

巴里·斯派金斯 Barry Spikings (id:1038334)

Richard Christian Matheson Richard Christian Matheson (id:1028450)

Connie Tavel Connie Tavel (id:1298958)

鲍尔亚伦 Paul Aaron (id:1276715)

大卫·纽曼 David Newman (id:1133751)

大卫·芬弗尔 David Finfer (id:1283725)

大卫·L·斯奈德 David L. Snyder (id:1050849)

克里斯·巴特勒 Chris Butler (id:1074956)

Scott Oshita Scott Oshita (id:1130199)

肖恩·史密斯 Shaun Smith (id:1297935)

David Stump David Stump (id:1276361)

Alan G. Markowitz Alan G. Markowitz (id:1291028)

Scott Schneider Scott Schneider (id:1147014)

马修·尤里奇 Matthew Yuricich (id:1301579)

Gregory L. McMurry Gregory L. McMurry (id:1001651)

Richard 'Dr.' Baily Richard 'Dr.' Baily (id:1006335)

◎简 介

热爱摇滚乐,一心想赢得大赛的阿比阿弟不小心被另一对长得一模一样的阿比阿弟机器推冥界。在他们大闹阴曹地府、畅游天堂之后还拖著死神回到阳世,拯救女友的性命···节奏强烈的热门歌曲、地狱游历的惊险怪谭,还有一对胡搞蛮缠的活宝兄弟,就已经使「阿」片够新鲜热闹了,再加上导演创新的拍摄手法,许多趣味的桥段串连,使本片不论在视觉效果、技术处理上皆比上集精进,娱乐效果更有过之而无不及。

  1. ##### MediaInfo ######

  2. General

  3. Unique ID : 268100367115176956053844504576193237487 (0xC9B240A4AE57ABF1918CB0C1B86491EF)

  4. Complete name : Bill.and.Teds.Bogus.Journey.1991.BluRay.1080p.DTS-HD.MA5.1.x265.10bit-BeiTai.mkv

  5. Format : Matroska

  6. Format version : Version 4

  7. File size : 11.5 GiB

  8. Duration : 1 h 33 min

  9. Overall bit rate mode : Variable

  10. Overall bit rate : 17.5 Mb/s

  11. Encoded date : UTC 2022-04-18 10:37:20

  12. Writing application : mkvmerge v49.0.0 ('Sick Of Losing Soulmates') 64-bit

  13. Writing library : libebml v1.4.0 + libmatroska v1.6.1

  14. Video

  15. ID : 1

  16. Format : HEVC

  17. Format/Info : High Efficiency Video Coding

  18. Format profile : Main [email protected]@High

  19. Codec ID : V_MPEGH/ISO/HEVC

  20. Duration : 1 h 33 min

  21. Bit rate : 12.7 Mb/s

  22. Width : 1 920 pixels

  23. Height : 1 038 pixels

  24. Display aspect ratio : 1.85:1

  25. Frame rate mode : Constant

  26. Frame rate : 23.976 (24000/1001/53354) FPS

  27. Color space : YUV

  28. Chroma subsampling : 4:2:0

  29. Bit depth : 10 bits

  30. Bits/(Pixel*Frame) : 0.266

  31. Stream size : 8.33 GiB (73%)

  32. Title : HEVC, [email protected]@High, 24/1.001 fps @ 12701 kbps

  33. Writing library : x265 3.5+36-1f2c8da77:[Windows][GCC 11.2.0][64 bit] 10bit

  34. Encoding settings : cpuid=533541111039 / frame-threads=4 / numa-pools=20 / wpp / pmode / pme / no-psnr / no-ssim / log-level=2 / input-csp=1 / input-res=1920x1038 / interlace=0 / total-frames=135096 / level-idc=51 / high-tier=1 / uhd-bd=0 / ref=5 / no-allow-non-conformance / no-repeat-headers / annexb / no-aud / no-eob / no-eos / no-hrd / info / hash=0 / no-temporal-layers / open-gop / min-keyint=24 / keyint=240 / gop-lookahead=0 / bframes=6 / b-adapt=2 / b-pyramid / bframe-bias=0 / rc-lookahead=40 / lookahead-slices=0 / NTMzNTQ=uuDQuD2mJt9fsCf / scenecut=40 / no-hist-scenecut / radl=0 / no-splice / no-intra-refresh / ctu=32 / min-cu-size=8 / no-rect / no-amp / max-tu-size=32 / tu-inter-depth=3 / tu-intra-depth=3 / limit-tu=4 / rdoq-level=2 / dynamic-rd=0.00 / no-ssim-rd / signhide / no-tskip / nr-intra=0 / nr-inter=0 / no-constrained-intra / no-strong-intra-smoothing / max-merge=4 / limit-refs=1 / limit-modes / me=3 / subme=4 / merange=25 / temporal-mvp / no-frame-dup / no-hme / weightp / weightb / no-analyze-src-pics / deblock=-3:-3 / no-sao / no-sao-non-deblock / rd=6 / selective-sao=0 / no-early-skip / rskip / no-fast-intra / no-tskip-fast / no-cu-lossless / b-intra / no-splitrd-skip / rdpenalty=0 / psy-rd=2.00 / psy-rdoq=1.00 / no-rd-refine / no-lossless / cbqpoffs=0 / crqpoffs=0 / rc=crf / crf=19.5 / qcomp=0.65 / qpstep=4 / stats-write=0 / stats-read=0 / vbv-maxrate=80000 / vbv-bufsize=80000 / vbv-init=0.9 / min-vbv-fullness=50.0 / max-vbv-fullness=80.0 / crf-max=0.0 / crf-min=0.0 / ipratio=1.40 / pbratio=1.30 / aq-mode=2 / aq-strength=0.85 / cutree / zone-count=0 / no-strict-cbr / qg-size=32 / no-rc-grain / qpmax=69 / qpmin=0 / no-const-vbv / sar=1 / overscan=0 / videoformat=5 / range=0 / colorprim=1 / transfer=1 / colormatrix=1 / chromaloc=0 / display-window=0 / cll=0,0 / min-luma=0 / max-luma=1023 / log2-max-poc-lsb=8 / vui-timing-info / vui-hrd-info / slices=1 / no-opt-qp-pps / no-opt-ref-list-length-pps / no-multi-pass-opt-rps / scenecut-bias=0.05 / hist-threshold=0.03 / no-opt-cu-delta-qp / no-aq-motion / no-hdr10 / no-hdr10-opt / no-dhdr10-opt / no-idr-recovery-sei / analysis-reuse-level=0 / analysis-save-reuse-level=0 / analysis-load-reuse-level=0 / scale-factor=0 / refine-intra=0 / refine-inter=0 / refine-mv=1 / refine-ctu-distortion=0 / no-limit-sao / ctu-info=0 / no-lowpass-dct / refine-analysis-type=0 / copy-pic=1 / max-ausize-factor=1.0 / no-dynamic-refine / no-single-sei / no-hevc-aq / no-svt / no-field / qp-adaptation-range=1.00 / scenecut-aware-qp=0conformance-window-offsets / right=0 / bottom=0 / NTMzNTQ= / decoder-max-rate=0 / no-vbv-live-multi-pass

  35. Language : English

  36. Default : Yes

  37. Forced : No

  38. Color range : Limited

  39. Color primaries : BT.709

  40. Transfer characteristics : BT.709

  41. Matrix coefficients : BT.709

  42. Audio #1

  43. ID : 2

  44. Format : DTS XLL

  45. Format/Info : Digital Theater Systems

  46. Commercial name : DTS-HD Master Audio

  47. Codec ID : A_DTS

  48. Duration : 1 h 33 min

  49. Bit rate mode : Variable

  50. Bit rate : 4 193 kb/s

  51. Channel(s) : 6 channels

  52. Channel layout : C L R Ls Rs LFE

  53. Sampling rate : 48.0 kHz

  54. Frame rate : 93.750 FPS (512 SPF)

  55. Bit depth : 24 bits

  56. Compression mode : Lossless

  57. Stream size : 2.75 GiB (24%)

  58. Title : English DTS-HD Master Audio 5.1 @ 4192 kbps

  59. Language : English

  60. Default : Yes

  61. Forced : No

  62. Audio #2

  63. ID : 3

  64. Format : AC-3

  65. Format/Info : Audio Coding 3

  66. Commercial name : Dolby Digital

  67. Codec ID : A_AC3

  68. Duration : 1 h 33 min

  69. Bit rate mode : Constant

  70. Bit rate : 224 kb/s

  71. Channel(s) : 2 channels

  72. Channel layout : L R

  73. Sampling rate : 48.0 kHz

  74. Frame rate : 31.250 FPS (1536 SPF)

  75. Compression mode : Lossy

  76. Stream size : 150 MiB (1%)

  77. Title : Commentary by Star Alex Winter and Producer Scott Kroopf

  78. Language : English

  79. Service kind : Complete Main

  80. Default : No

  81. Forced : No

  82. Audio #3

  83. ID : 4

  84. Format : AC-3

  85. Format/Info : Audio Coding 3

  86. Commercial name : Dolby Digital

  87. Codec ID : A_AC3

  88. Duration : 1 h 33 min

  89. Bit rate mode : Constant

  90. Bit rate : 224 kb/s

  91. Channel(s) : 2 channels

  92. Channel layout : L R

  93. Sampling rate : 48.0 kHz

  94. Frame rate : 31.250 FPS (1536 SPF)

  95. Compression mode : Lossy

  96. Stream size : 150 MiB (1%)

  97. Title : Commentary by Writers Chris Matheson and Ed Solomon

  98. Language : English

  99. Service kind : Complete Main

  100. Default : No

  101. Forced : No

  102. Text #1

  103. ID : 5

  104. Format : PGS

  105. Codec ID : S_HDMV/PGS

  106. Codec ID/Info : Picture based subtitle format used on BDs/HD-DVDs

  107. Duration : 1 h 27 min

  108. Bit rate : 19.6 kb/s

  109. Count of elements : 1824

  110. Stream size : 12.3 MiB (0%)

  111. Title : English

  112. Language : English

  113. Default : No

  114. Forced : No

  115. Text #2

  116. ID : 6

  117. Format : PGS

  118. Codec ID : S_HDMV/PGS

  119. Codec ID/Info : Picture based subtitle format used on BDs/HD-DVDs

  120. Duration : 1 h 27 min

  121. Bit rate : 46.5 kb/s

  122. Count of elements : 2065

  123. Stream size : 29.1 MiB (0%)

  124. Title : Eng/SUP SDH

  125. Language : English

  126. Default : No

  127. Forced : No

  128. Text #3

  129. ID : 7

  130. Format : PGS

  131. Codec ID : S_HDMV/PGS

  132. Codec ID/Info : Picture based subtitle format used on BDs/HD-DVDs

  133. Duration : 1 h 27 min

  134. Bit rate : 49.9 kb/s

  135. Count of elements : 2404

  136. Stream size : 31.2 MiB (0%)

  137. Title : Chs/SUP 简英双语

  138. Language : Chinese

  139. Default : Yes

  140. Forced : No

  141. Text #4

  142. ID : 8

  143. Format : PGS

  144. Codec ID : S_HDMV/PGS

  145. Codec ID/Info : Picture based subtitle format used on BDs/HD-DVDs

  146. Duration : 1 h 27 min

  147. Bit rate : 51.5 kb/s

  148. Count of elements : 2404

  149. Stream size : 32.1 MiB (0%)

  150. Title : Cht/SUP 繁英双语

  151. Language : Chinese

  152. Default : No

  153. Forced : No

  154. Menu

  155. 00:00:00.000 : en:Main Title/"2691 A.D."

  156. 00:08:18.664 : en:"Wyld Stallyns!"

  157. 00:15:29.929 : en:"It's Us Again!"

  158. 00:21:37.713 : en:Double Cliffhanger

  159. 00:25:27.400 : en:"We're Dead Dude!"

  160. 00:30:32.247 : en:Police Possession

  161. 00:36:16.048 : en:Meet The Devil

  162. 00:46:36.376 : en:Cheating Death

  163. 00:51:27.959 : en:"Welcome To Heaven"

  164. 00:59:20.974 : en:The Martian Scientists

  165. 01:08:25.684 : en:Battle Of Good Vs. Evil

  166. 01:25:42.846 : en:"Let'sRock!"/Credits


复制代码



文件下载


除非特别注明,本文『比尔和泰德畅游鬼门关[简繁英字幕].Bill.and.Teds.Bogus.Journey.1991.BluRay.1080p.DTS-HD.MA5.1.x265.10bit-ALT 11.48GB』来源于互联网机器人自动抓取,非本站原创。 浮游电影网不对本文拥有版权,如有侵犯,请联系邮箱:fuyouu#yandex.com[#换成@]投诉。我们会在15个工作日内删除。 但烦请转载时请标明出处:“本文转载于『浮游电影网』,原文地址:https://www.fuyouu.com/21468.html

评论吧骚年!

发表你的见解   

昵称*

E-mail*(建议输入,以便收到博主回复的提示邮件)

验证码*

您可以使用eMule或eMule Mod(Windows)、aMule(Win、Linux、Mac)等软件下载eD2k链接。。
eMule收藏集(.emulecollection)文件是您选中的所有链接的列表文件。eMule可以直接下载它们。
按住SHIFT键选择可以选中多个选择框。
可用文件名和大小选择器来选择文件。
文件名选择器帮您根据文件名称或后缀来选择文件。不分大小写。
符号使用:
和:空格( )、+
不包含:-
或:|
转义:一对英文引号("");
匹配开头:^
匹配结尾:$
例如:
选中所有名称中包含有“eMule”或“0.49c”字眼,但不包含有“exe”字眼的:emule|0.49c -exe
选中所有名称的开头是“eMule”,结尾是“0.49c”的:^emule 0.49c$
选中所有名称中带有“eMule 0.49c”的(必须是“eMule 0.49c”,中间没有别的字符,不能是“eMule fake 0.49c”),需要转义:"emule 0.49c"
大小选择器帮您根据文件大小选择文件。