当前位置: 首页 >> 欧美电影 >> 倒扣的王牌[简体字幕].Ace.in.the.Hole.1951.1080p.BluRay.DD2.0.x265-10bit-ENTHD 7.96GB >> 正文

倒扣的王牌[简体字幕].Ace.in.the.Hole.1951.1080p.BluRay.DD2.0.x265-10bit-ENTHD 7.96GB

2022年04月19日 22:24:47     电影发布:来源于网络     电影分类:欧美电影     评论(0)    

倒扣的王牌[简体字幕].Ace.in.the.Hole.1951.1080p.BluRay.DD2.0.x265 10bit ENTHD 7.96GB  欧美电影  第1张

◎译 名 倒扣的王牌 / 生葬古丘坟(港) / 洞里乾坤(台) / 秘藏的王牌 / 洞中王牌 / 扑克王 / The Big Carnival

◎片 名 Ace in the Hole

◎年 代 1951

◎产 地 美国

◎类 别 剧情 / 黑色电影

◎语 言 英语 / 拉丁语

◎上映日期 1951-06-29

◎IMDb链接 https://www.imdb.com/title/tt0043338/

◎豆瓣评分 8.7/10 (12717人评价)

◎豆瓣链接 https://movie.douban.com/subject/1293841/

◎片 长 111 分钟

◎导 演 比利·怀尔德 Billy Wilder (id:1054385)

◎编 剧 比利·怀尔德 Billy Wilder (id:1054385)

莱赛尔·萨缪尔斯 Lesser Samuels (id:1023735)

沃尔特·纽曼 Walter Newman (id:1006038)

◎演 员 柯克·道格拉斯 Kirk Douglas (id:1036372)

简·斯特林 Jan Sterling (id:1002853)

罗伯特·亚瑟 Robert Arthur (id:1057571)

波特·霍尔 Porter Hall (id:1099641)

雷·蒂尔 Ray Teal (id:1151164)

理查德·贝内迪克特 Richard Benedict (id:1016789)

杰拉尔丁·豪尔 Geraldine Hall (id:1101315)

查尔斯·朗 Charles Lang (id:1104462)

◎简 介

身无分文的记者丘克(Kirk Douglas 饰)流落一座新墨西哥州的小城,他舌如巧簧向当地报馆的主编推销自己,宣称自己有制造新闻的天才。波澜不惊的小城生活让曾经供职纽约的丘克倍感无聊。这天,主编令丘克外出采访,丘克于路却意外遭遇一名小镇店主里奥被困山洞。丘克敏感的意识到这件事情背后的新闻价值,他迅速联系州长、工程队与医生。随着丘克的一篇篇报道,观看施救过程的民众陆续赶来,本欲离开的里奥妻子因为看到有利可图而选择留下,并与丘克站到了同一阵营,丘克安排采用费时的营救方式来维持事件的新闻热度。几天内人群不断涌入,营救现场俨然成为游乐场。丘克与纽约的老上司讨价还价之时,洞中的里奥却走到了生命的尽头……

本片获1952年奥斯卡最佳编剧奖。

◎获奖情况 (共4项)

第24届奥斯卡金像奖 (1952)

最佳故事/编剧(提名)

第12届威尼斯电影节 (1951)

主竞赛单元 金狮奖 (提名)

└──比利·怀尔德 (id:1054385)

国际奖 最佳配乐

└──雨果·弗里德霍弗 (id:1048482)

国际奖

└──比利·怀尔德 (id:1054385)

  1. ##### MediaInfo ######

  2. General

  3. Unique ID : 45005313885301558637428379492000263176 (0x21DBB54A6BC90671BEAC31923350EC08)

  4. Complete name : Ace.in.the.Hole.1951.1080p.BluRay.DD2.0.x265-10bit-HDS.mkv

  5. Format : Matroska

  6. Format version : Version 4

  7. File size : 7.96 GiB

  8. Duration : 1 h 51 min

  9. Overall bit rate : 10.3 Mb/s

  10. Movie name : Ace in the Hole 1951 1080p BluRay DD2.0 x265-10bit-HDS

  11. Encoded date : UTC 2022-04-18 11:20:08

  12. Writing application : mkvmerge v38.0.0 ('The Silent Type') 64-bit

  13. Writing library : libebml v1.3.9 + libmatroska v1.5.2

  14. Video

  15. ID : 1

  16. Format : HEVC

  17. Format/Info : High Efficiency Video Coding

  18. Format profile : Main [email protected]@High

  19. Codec ID : V_MPEGH/ISO/HEVC

  20. Duration : 1 h 51 min

  21. Bit rate : 9 560 kb/s

  22. Width : 1 452 pixels

  23. Height : 1 080 pixels

  24. Display aspect ratio : 4:3

  25. Frame rate mode : Constant

  26. Frame rate : 23.976 (24000/1001/53354) FPS

  27. Color space : YUV

  28. Chroma subsampling : 4:2:0

  29. Bit depth : 10 bits

  30. Bits/(Pixel*Frame) : 0.254

  31. Stream size : 7.43 GiB (93%)

  32. Title : @HDSky

  33. Writing library : x265 - H.265/HEVC codec

  34. Default : Yes

  35. Forced : No

  36. Audio

  37. ID : 2

  38. Format : AC-3

  39. Format/Info : Audio Coding 3

  40. Commercial name : Dolby Digital

  41. Codec ID : A_AC3

  42. Duration : 1 h 51 min

  43. Bit rate mode : Constant

  44. Bit rate : 640 kb/s

  45. Channel(s) : 2 channels

  46. Channel layout : L R

  47. Sampling rate : 48.0 kHz

  48. Frame rate : 31.250 FPS (1536 SPF)

  49. Compression mode : Lossy

  50. Stream size : 509 MiB (6%)

  51. Title : English

  52. Language : English

  53. Service kind : Complete Main

  54. Default : Yes

  55. Forced : No

  56. Text #1

  57. ID : 3

  58. Format : PGS

  59. Muxing mode : zlib

  60. Codec ID : S_HDMV/PGS

  61. Codec ID/Info : Picture based subtitle format used on BDs/HD-DVDs

  62. Duration : 1 h 48 min

  63. Bit rate : 48.2 kb/s

  64. Count of elements : 1834

  65. Stream size : 37.5 MiB (0%)

  66. Title : CHS

  67. Language : Chinese

  68. Default : Yes

  69. Forced : No

  70. Text #2

  71. ID : 4

  72. Format : PGS

  73. Muxing mode : zlib

  74. Codec ID : S_HDMV/PGS

  75. Codec ID/Info : Picture based subtitle format used on BDs/HD-NewHD

复制代码



文件下载


除非特别注明,本文『倒扣的王牌[简体字幕].Ace.in.the.Hole.1951.1080p.BluRay.DD2.0.x265-10bit-ENTHD 7.96GB』来源于互联网机器人自动抓取,非本站原创。 浮游电影网不对本文拥有版权,如有侵犯,请联系邮箱:fuyouu#yandex.com[#换成@]投诉。我们会在15个工作日内删除。 但烦请转载时请标明出处:“本文转载于『浮游电影网』,原文地址:https://www.fuyouu.com/21466.html

评论吧骚年!

发表你的见解   

昵称*

E-mail*(建议输入,以便收到博主回复的提示邮件)

验证码*

您可以使用eMule或eMule Mod(Windows)、aMule(Win、Linux、Mac)等软件下载eD2k链接。。
eMule收藏集(.emulecollection)文件是您选中的所有链接的列表文件。eMule可以直接下载它们。
按住SHIFT键选择可以选中多个选择框。
可用文件名和大小选择器来选择文件。
文件名选择器帮您根据文件名称或后缀来选择文件。不分大小写。
符号使用:
和:空格( )、+
不包含:-
或:|
转义:一对英文引号("");
匹配开头:^
匹配结尾:$
例如:
选中所有名称中包含有“eMule”或“0.49c”字眼,但不包含有“exe”字眼的:emule|0.49c -exe
选中所有名称的开头是“eMule”,结尾是“0.49c”的:^emule 0.49c$
选中所有名称中带有“eMule 0.49c”的(必须是“eMule 0.49c”,中间没有别的字符,不能是“eMule fake 0.49c”),需要转义:"emule 0.49c"
大小选择器帮您根据文件大小选择文件。