当前位置: 首页 >> 港台电影 >> 追日[国语配音/中文字幕].A.Chinese.Legend.1991.WEB-DL.1080p.H264.AAC-HOMEWEB 2.04GB >> 正文

追日[国语配音/中文字幕].A.Chinese.Legend.1991.WEB-DL.1080p.H264.AAC-HOMEWEB 2.04GB

2022年04月19日 22:23:39     电影发布:来源于网络     电影分类:港台电影     评论(0)    

追日[国语配音/中文字幕].A.Chinese.Legend.1991.WEB DL.1080p.H264.AAC HOMEWEB 2.04GB  港台电影  第1张

◎译 名 追日 / 古剑山庄 / A Chinese Legend

◎年 代 1991

◎产 地 中国香港

◎类 别 剧情 / 动作 / 冒险

◎语 言 粤语

◎上映日期 1991-06-14

◎IMDb链接 https://www.imdb.com/title/tt0103330/

◎豆瓣评分 6.4/10 (2109人评价)

◎豆瓣链接 https://movie.douban.com/subject/1305638/

◎片 长 China: 91 分钟

◎导 演 刘鸿泉 Hung Chuen Lau (id:1318709)

◎演 员 张学友 Jacky Cheung (id:1012563)

王祖贤 Joey Wong (id:1166896)

张敏 Sharla Cheung (id:1005297)

午马 Wu Ma (id:1054282)

郑天庸 Tianyong Zheng (id:1315089)

刘洵 Shun Lau (id:1274304)

朱伟光 Barry Jue Wai-Gwong (id:1409227)

◎简 介

行侠仗义的剑客贾逸(张学友 饰)于偶然之中得知鬼王即将祸害人间,于是前往古剑山庄,想要借山庄绝学将鬼王扼杀在萌芽之中。途中,贾逸遇见了逃婚的女子古梦雪(王祖贤 饰),两人情愫渐生,然而,最终古梦雪还是离开了贾逸,成为了别人的妻子。

古剑山庄庄主颜英告诉贾逸,鬼王在人间强 娶了一名女子,而这名女子不是别人,正是古梦雪,贾逸得知了真相,然而为时已晚。贾逸前往阴间想要救回古梦雪,遂和鬼王发生了激烈的战斗,在交战之中,贾逸身受重伤,所幸得到狐精青儿(张敏 饰)相救,才挽回一命。重整旗鼓之后,贾逸施展追日大法,想要令时光倒流,改变历史

  1. ##### MediaInfo ######

  2. General

  3. Complete name : A Chinese Legend 1991 WEB-DL 1080p H264 AAC-Dave.mp4

  4. Format : MPEG-4

  5. Format profile : Base Media

  6. Codec ID : isom (isom/iso2/avc1/mp41)

  7. File size : 2.04 GiB

  8. Duration : 1 h 28 min

  9. Overall bit rate mode : Variable

  10. Overall bit rate : 3 293 kb/s

  11. Writing application : Lavf59.16.100

  12. Video

  13. ID : 1

  14. Format : AVC

  15. Format/Info : Advanced Video Codec

  16. Format profile : [email protected]

  17. Format settings : CABAC / 4 Ref Frames

  18. Format settings, CABAC : Yes

  19. Format settings, Reference frames : 4 frames

  20. Codec ID : avc1

  21. Codec ID/Info : Advanced Video Coding

  22. Duration : 1 h 28 min

  23. Source duration : 1 h 28 min

  24. Bit rate : 2 898 kb/s

  25. Maximum bit rate : 3 034 kb/s

  26. Width : 1 920 pixels

  27. Height : 822 pixels

  28. Display aspect ratio : 2.35:1

  29. Frame rate mode : Constant

  30. Frame rate : 25.000 FPS

  31. Color space : YUV

  32. Chroma subsampling : 4:2:0

  33. Bit depth : 8 bits

  34. Scan type : Progressive

  35. Bits/(Pixel*Frame) : 0.073

  36. Stream size : 1.79 GiB (88%)

  37. Source stream size : 1.88 GiB (92%)

  38. Color range : Limited

  39. Color primaries : BT.709

  40. Transfer characteristics : BT.709

  41. Matrix coefficients : BT.709

  42. Codec configuration box : avcC

  43. Audio

  44. ID : 2

  45. Format : AAC LC

  46. Format/Info : Advanced Audio Codec Low Complexity

  47. Codec ID : mp4a-40-2

  48. Duration : 1 h 28 min

  49. Bit rate mode : Variable

  50. Bit rate : 256 kb/s / 256 kb/s

  51. Channel(s) : 2 channels

  52. Channel layout : L R

  53. Sampling rate : 44.1 kHz

  54. Frame rate : 43.066 FPS (1024 SPF)

  55. Compression mode : Lossy

  56. Stream size : 161 MiB (8%)

  57. Default : Yes

  58. Alternate group : 1


复制代码



文件下载


除非特别注明,本文『追日[国语配音/中文字幕].A.Chinese.Legend.1991.WEB-DL.1080p.H264.AAC-HOMEWEB 2.04GB』来源于互联网机器人自动抓取,非本站原创。 浮游电影网不对本文拥有版权,如有侵犯,请联系邮箱:fuyouu#yandex.com[#换成@]投诉。我们会在15个工作日内删除。 但烦请转载时请标明出处:“本文转载于『浮游电影网』,原文地址:https://www.fuyouu.com/21465.html

评论吧骚年!

发表你的见解   

昵称*

E-mail*(建议输入,以便收到博主回复的提示邮件)

验证码*

您可以使用eMule或eMule Mod(Windows)、aMule(Win、Linux、Mac)等软件下载eD2k链接。。
eMule收藏集(.emulecollection)文件是您选中的所有链接的列表文件。eMule可以直接下载它们。
按住SHIFT键选择可以选中多个选择框。
可用文件名和大小选择器来选择文件。
文件名选择器帮您根据文件名称或后缀来选择文件。不分大小写。
符号使用:
和:空格( )、+
不包含:-
或:|
转义:一对英文引号("");
匹配开头:^
匹配结尾:$
例如:
选中所有名称中包含有“eMule”或“0.49c”字眼,但不包含有“exe”字眼的:emule|0.49c -exe
选中所有名称的开头是“eMule”,结尾是“0.49c”的:^emule 0.49c$
选中所有名称中带有“eMule 0.49c”的(必须是“eMule 0.49c”,中间没有别的字符,不能是“eMule fake 0.49c”),需要转义:"emule 0.49c"
大小选择器帮您根据文件大小选择文件。