当前位置: 首页 >> 海外电影 >> 野蛮交易[中英字幕].Furioza.2022.1080p.NF.WEB-DL.DDP.2.0.H.264-CTRLWEB 4.59GB >> 正文

野蛮交易[中英字幕].Furioza.2022.1080p.NF.WEB-DL.DDP.2.0.H.264-CTRLWEB 4.59GB

2022年04月19日 14:06:12     电影发布:来源于网络     电影分类:海外电影     评论(0)    

p2871050165.jpg

◎译 名 Furioza

◎年 代 2020

◎产 地 波兰

◎类 别 剧情 / 动作 / 犯罪

◎语 言 波兰语

◎IMDb链接 https://www.imdb.com/title/tt10515864/

◎豆瓣链接 https://movie.douban.com/subject/35387937/

◎演 员 马太乌兹·巴纳斯乌克 Mateusz Banasiuk (id:1339895)

斯齐蒙·博布鲁夫斯基 Szymon Bobrowski (id:1065196)

杰尼斯·查比尔 Janusz Chabior (id:1074311)

马特兹·达米克基 Mateusz Damiecki (id:1045722)

Mariusz Drezek Mariusz Drezek (id:1189108)

保利娜·加拉萨卡 Paulina Galazka (id:1375119)

Sylwia Juszczak (id:1220009)

Weronika Ksiazkiewicz Weronika Ksiazkiewicz (id:1193445)

西泽瑞·鲁卡斯瑟维克茨 Cezary Lukaszewicz (id:1251631)

卢卡斯·辛拉特 Lukasz Simlat (id:1190690)

塞巴斯蒂安·斯坦齐维兹 Sebastian Stankiewicz (id:1245745)

  1. ##### MediaInfo ######

  2. General

  3. Unique ID : 77024260195832434517357362874652399210 (0x39F25539F3F875E7263BE3418FC5966A)

  4. Complete name : Furioza.2022.1080p.NF.WEB-DL.DDP.2.0.H.264-CTRLWEB.mkv

  5. Format : Matroska

  6. Format version : Version 4

  7. File size : 4.59 GiB

  8. Duration : 2 h 20 min

  9. Overall bit rate mode : Variable

  10. Overall bit rate : 4 671 kb/s

  11. Encoded date : UTC 2022-04-07 02:56:34

  12. Writing application : mkvmerge v65.0.0 ('Too Much') 64-bit

  13. Writing library : libebml v1.4.2 + libmatroska v1.6.4

  14. Video

  15. ID : 1

  16. Format : AVC

  17. Format/Info : Advanced Video Codec

  18. Format profile : [email protected]

  19. Format settings : CABAC / 4 Ref Frames

  20. Format settings, CABAC : Yes

  21. Format settings, Reference frames : 4 frames

  22. Codec ID : V_MPEG4/ISO/AVC

  23. Duration : 2 h 20 min

  24. Bit rate mode : Variable

  25. Bit rate : 4 539 kb/s

  26. Maximum bit rate : 20.0 Mb/s

  27. Width : 1 920 pixels

  28. Height : 1 080 pixels

  29. Display aspect ratio : 16:9

  30. Frame rate mode : Constant

  31. Frame rate : 24.000 FPS

  32. Color space : YUV

  33. Chroma subsampling : 4:2:0

  34. Bit depth : 8 bits

  35. Scan type : Progressive

  36. Bits/(Pixel*Frame) : 0.091

  37. Stream size : 4.46 GiB (97%)

  38. Writing library : x264 core 148 r2727 7d026e8

  39. Encoding settings : cabac=1 / ref=4 / deblock=1:0:0 / analyse=0x3:0x111 / me=umh / subme=10 / psy=1 / psy_rd=1.00:0.00 / mixed_ref=1 / me_range=120 / chroma_me=1 / trellis=2 / 8x8dct=1 / cqm=0 / deadzone=21,11 / fast_pskip=1 / chroma_qp_offset=-2 / threads=8 / lookahead_threads=2 / sliced_threads=0 / nr=0 / decimate=1 / interlaced=0 / NTMzNTQ= / bluray_compat=0 / stitchable=1 / constrained_intra=0 / bframes=16 / b_pyramid=2 / b_adapt=2 / b_bias=0 / direct=3 / weightb=1 / open_gop=0 / weightp=2 / keyint=240 / keyint_min=121 / scenecut=0 / intra_refresh=0 / rc_lookahead=240 / rc=crf / mbtree=1 / crf=16.0 / qcomp=0.50 / qpmin=6 / qpmax=51 / qpstep=4 / vbv_maxrate=20000 / vbv_bufsize=25000 / crf_max=0.0 / nal_hrd=vbr / filler=0 / NTMzNTQ=LmsMAP37EqsCpk / ip_ratio=1.40 / aq=1:0.80

  40. Language : Polish

  41. Default : Yes

  42. Forced : No

  43. Audio

  44. ID : 2

  45. Format : E-AC-3

  46. Format/Info : Enhanced AC-3

  47. Commercial name : Dolby Digital Plus

  48. Codec ID : A_EAC3

  49. Duration : 2 h 20 min

  50. Bit rate mode : Constant

  51. Bit rate : 128 kb/s

  52. Channel(s) : 2 channels

  53. Channel layout : L R

  54. Sampling rate : 48.0 kHz

  55. Frame rate : 31.250 FPS (1536 SPF)

  56. Compression mode : Lossy

  57. Stream size : 129 MiB (3%)

  58. Language : Polish

  59. Service kind : Complete Main

  60. Default : Yes

  61. Forced : No

  62. Text #1

  63. ID : 3

  64. Format : UTF-8

  65. Codec ID : S_TEXT/UTF8

  66. Codec ID/Info : UTF-8 Plain Text

  67. Duration : 1 min 5 s

  68. Bit rate : 40 b/s

  69. Count of elements : 11

  70. Stream size : 328 Bytes (0%)

  71. Title : Forced

  72. Language : Polish

  73. Default : Yes

  74. Forced : Yes

  75. Text #2

  76. ID : 4

  77. Format : UTF-8

  78. Codec ID : S_TEXT/UTF8

  79. Codec ID/Info : UTF-8 Plain Text

  80. Duration : 2 h 13 min

  81. Bit rate : 62 b/s

  82. Count of elements : 2118

  83. Stream size : 61.5 KiB (0%)

  84. Title : SDH

  85. Language : Polish

  86. Default : No

  87. Forced : No

  88. Text #3

  89. ID : 5

  90. Format : UTF-8

  91. Codec ID : S_TEXT/UTF8

  92. Codec ID/Info : UTF-8 Plain Text

  93. Duration : 2 h 18 min

  94. Bit rate : 81 b/s

  95. Count of elements : 1628

  96. Stream size : 82.6 KiB (0%)

  97. Language : Arabic

  98. Default : No

  99. Forced : No

  100. Text #4

  101. ID : 6

  102. Format : UTF-8

  103. Codec ID : S_TEXT/UTF8

  104. Codec ID/Info : UTF-8 Plain Text

  105. Duration : 2 h 18 min

  106. Bit rate : 45 b/s

  107. Count of elements : 1620

  108. Stream size : 45.9 KiB (0%)

  109. Language : Czech

  110. Default : No

  111. Forced : No

  112. Text #5

  113. ID : 7

  114. Format : UTF-8

  115. Codec ID : S_TEXT/UTF8

  116. Codec ID/Info : UTF-8 Plain Text

  117. Duration : 2 h 18 min

  118. Bit rate : 40 b/s

  119. Count of elements : 1491

  120. Stream size : 41.5 KiB (0%)

  121. Language : Danish

  122. Default : No

  123. Forced : No

  124. Text #6

  125. ID : 8

  126. Format : UTF-8

  127. Codec ID : S_TEXT/UTF8

  128. Codec ID/Info : UTF-8 Plain Text

  129. Duration : 2 h 18 min

  130. Bit rate : 44 b/s

  131. Count of elements : 1549

  132. Stream size : 45.3 KiB (0%)

  133. Language : German

  134. Default : No

  135. Forced : No

  136. Text #7

  137. ID : 9

  138. Format : UTF-8

  139. Codec ID : S_TEXT/UTF8

  140. Codec ID/Info : UTF-8 Plain Text

  141. Duration : 2 h 18 min

  142. Bit rate : 74 b/s

  143. Count of elements : 1604

  144. Stream size : 75.1 KiB (0%)

  145. Language : Greek

  146. Default : No

  147. Forced : No

  148. Text #8

  149. ID : 10

  150. Format : UTF-8

  151. Codec ID : S_TEXT/UTF8

  152. Codec ID/Info : UTF-8 Plain Text

  153. Duration : 2 h 12 min

  154. Bit rate : 40 b/s

  155. Count of elements : 1408

  156. Stream size : 38.8 KiB (0%)

  157. Language : English

  158. Default : No

  159. Forced : No

  160. Text #9

  161. ID : 11

  162. Format : UTF-8

  163. Codec ID : S_TEXT/UTF8

  164. Codec ID/Info : UTF-8 Plain Text

  165. Duration : 2 h 18 min

  166. Bit rate : 46 b/s

  167. Count of elements : 1598

  168. Stream size : 47.2 KiB (0%)

  169. Language : Spanish

  170. Default : No

  171. Forced : No

  172. Text #10

  173. ID : 12

  174. Format : UTF-8

  175. Codec ID : S_TEXT/UTF8

  176. Codec ID/Info : UTF-8 Plain Text

  177. Duration : 2 h 18 min

  178. Bit rate : 44 b/s

  179. Count of elements : 1601

  180. Stream size : 45.2 KiB (0%)

  181. Title : Europe

  182. Language : Spanish

  183. Default : No

  184. Forced : No

  185. Text #11

  186. ID : 13

  187. Format : UTF-8

  188. Codec ID : S_TEXT/UTF8

  189. Codec ID/Info : UTF-8 Plain Text

  190. Duration : 2 h 18 min

  191. Bit rate : 39 b/s

  192. Count of elements : 1447

  193. Stream size : 40.4 KiB (0%)

  194. Language : Finnish

  195. Default : No

  196. Forced : No

  197. Text #12

  198. ID : 14

  199. Format : UTF-8

  200. Codec ID : S_TEXT/UTF8

  201. Codec ID/Info : UTF-8 Plain Text

  202. Duration : 2 h 18 min

  203. Bit rate : 44 b/s

  204. Count of elements : 1616

  205. Stream size : 45.3 KiB (0%)

  206. Language : French

  207. Default : No

  208. Forced : No

  209. Text #13

  210. ID : 15

  211. Format : UTF-8

  212. Codec ID : S_TEXT/UTF8

  213. Codec ID/Info : UTF-8 Plain Text

  214. Duration : 2 h 18 min

  215. Bit rate : 76 b/s

  216. Count of elements : 1590

  217. Stream size : 77.9 KiB (0%)

  218. Language : Hebrew

  219. Default : No

  220. Forced : No

  221. Text #14

  222. ID : 16

  223. Format : UTF-8

  224. Codec ID : S_TEXT/UTF8

  225. Codec ID/Info : UTF-8 Plain Text

  226. Duration : 2 h 18 min

  227. Bit rate : 40 b/s

  228. Count of elements : 1582

  229. Stream size : 41.2 KiB (0%)

  230. Language : Croatian

  231. Default : No

  232. Forced : No

  233. Text #15

  234. ID : 17

  235. Format : UTF-8

  236. Codec ID : S_TEXT/UTF8

  237. Codec ID/Info : UTF-8 Plain Text

  238. Duration : 2 h 18 min

  239. Bit rate : 46 b/s

  240. Count of elements : 1608

  241. Stream size : 47.2 KiB (0%)

  242. Language : Hungarian

  243. Default : No

  244. Forced : No

  245. Text #16

  246. ID : 18

  247. Format : UTF-8

  248. Codec ID : S_TEXT/UTF8

  249. Codec ID/Info : UTF-8 Plain Text

  250. Duration : 2 h 18 min

  251. Bit rate : 42 b/s

  252. Count of elements : 1603

  253. Stream size : 43.2 KiB (0%)

  254. Language : Indonesian

  255. Default : No

  256. Forced : No

  257. Text #17

  258. ID : 19

  259. Format : UTF-8

  260. Codec ID : S_TEXT/UTF8

  261. Codec ID/Info : UTF-8 Plain Text

  262. Duration : 2 h 18 min

  263. Bit rate : 42 b/s

  264. Count of elements : 1555

  265. Stream size : 43.5 KiB (0%)

  266. Language : Italian

  267. Default : No

  268. Forced : No

  269. Text #18

  270. ID : 20

  271. Format : UTF-8

  272. Codec ID : S_TEXT/UTF8

  273. Codec ID/Info : UTF-8 Plain Text

  274. Duration : 2 h 18 min

  275. Bit rate : 48 b/s

  276. Count of elements : 1808

  277. Stream size : 49.1 KiB (0%)

  278. Language : Japanese

  279. Default : No

  280. Forced : No

  281. Text #19

  282. ID : 21

  283. Format : UTF-8

  284. Codec ID : S_TEXT/UTF8

  285. Codec ID/Info : UTF-8 Plain Text

  286. Duration : 2 h 18 min

  287. Bit rate : 63 b/s

  288. Count of elements : 1829

  289. Stream size : 64.8 KiB (0%)

  290. Language : Korean

  291. Default : No

  292. Forced : No

  293. Text #20

  294. ID : 22

  295. Format : UTF-8

  296. Codec ID : S_TEXT/UTF8

  297. Codec ID/Info : UTF-8 Plain Text

  298. Duration : 2 h 18 min

  299. Bit rate : 42 b/s

  300. Count of elements : 1609

  301. Stream size : 43.2 KiB (0%)

  302. Language : Malay

  303. Default : No

  304. Forced : No

  305. Text #21

  306. ID : 23

  307. Format : UTF-8

  308. Codec ID : S_TEXT/UTF8

  309. Codec ID/Info : UTF-8 Plain Text

  310. Duration : 2 h 18 min

  311. Bit rate : 42 b/s

  312. Count of elements : 1445

  313. Stream size : 43.2 KiB (0%)

  314. Language : Norwegian Bokmal

  315. Default : No

  316. Forced : No

  317. Text #22

  318. ID : 24

  319. Format : UTF-8

  320. Codec ID : S_TEXT/UTF8

  321. Codec ID/Info : UTF-8 Plain Text

  322. Duration : 2 h 18 min

  323. Bit rate : 44 b/s

  324. Count of elements : 1398

  325. Stream size : 45.4 KiB (0%)

  326. Language : Dutch

  327. Default : No

  328. Forced : No

  329. Text #23

  330. ID : 25

  331. Format : UTF-8

  332. Codec ID : S_TEXT/UTF8

  333. Codec ID/Info : UTF-8 Plain Text

  334. Duration : 2 h 18 min

  335. Bit rate : 44 b/s

  336. Count of elements : 1591

  337. Stream size : 45.4 KiB (0%)

  338. Language : Portuguese

  339. Default : No

  340. Forced : No

  341. Text #24

  342. ID : 26

  343. Format : UTF-8

  344. Codec ID : S_TEXT/UTF8

  345. Codec ID/Info : UTF-8 Plain Text

  346. Duration : 2 h 18 min

  347. Bit rate : 42 b/s

  348. Count of elements : 1544

  349. Stream size : 42.6 KiB (0%)

  350. Title : Brazil

  351. Language : Portuguese

  352. Default : No

  353. Forced : No

  354. Text #25

  355. ID : 27

  356. Format : UTF-8

  357. Codec ID : S_TEXT/UTF8

  358. Codec ID/Info : UTF-8 Plain Text

  359. Duration : 2 h 18 min

  360. Bit rate : 46 b/s

  361. Count of elements : 1610

  362. Stream size : 47.4 KiB (0%)

  363. Language : Romanian

  364. Default : No

  365. Forced : No

  366. Text #26

  367. ID : 28

  368. Format : UTF-8

  369. Codec ID : S_TEXT/UTF8

  370. Codec ID/Info : UTF-8 Plain Text

  371. Duration : 2 h 18 min

  372. Bit rate : 73 b/s

  373. Count of elements : 1612

  374. Stream size : 74.1 KiB (0%)

  375. Language : Russian

  376. Default : No

  377. Forced : No

  378. Text #27

  379. ID : 29

  380. Format : UTF-8

  381. Codec ID : S_TEXT/UTF8

  382. Codec ID/Info : UTF-8 Plain Text

  383. Duration : 2 h 12 min

  384. Bit rate : 48 b/s

  385. Count of elements : 1453

  386. Stream size : 47.0 KiB (0%)

  387. Language : Swedish

  388. Default : No

  389. Forced : No

  390. Text #28

  391. ID : 30

  392. Format : UTF-8

  393. Codec ID : S_TEXT/UTF8

  394. Codec ID/Info : UTF-8 Plain Text

  395. Duration : 2 h 18 min

  396. Bit rate : 122 b/s

  397. Count of elements : 1620

  398. Stream size : 124 KiB (0%)

  399. Language : Thai

  400. Default : No

  401. Forced : No

  402. Text #29

  403. ID : 31

  404. Format : UTF-8

  405. Codec ID : S_TEXT/UTF8

  406. Codec ID/Info : UTF-8 Plain Text

  407. Duration : 2 h 18 min

  408. Bit rate : 43 b/s

  409. Count of elements : 1547

  410. Stream size : 44.3 KiB (0%)

  411. Language : Turkish

  412. Default : No

  413. Forced : No

  414. Text #30

  415. ID : 32

  416. Format : UTF-8

  417. Codec ID : S_TEXT/UTF8

  418. Codec ID/Info : UTF-8 Plain Text

  419. Duration : 2 h 18 min

  420. Bit rate : 73 b/s

  421. Count of elements : 1598

  422. Stream size : 74.6 KiB (0%)

  423. Language : Ukrainian

  424. Default : No

  425. Forced : No

  426. Text #31

  427. ID : 33

  428. Format : UTF-8

  429. Codec ID : S_TEXT/UTF8

  430. Codec ID/Info : UTF-8 Plain Text

  431. Duration : 2 h 18 min

  432. Bit rate : 63 b/s

  433. Count of elements : 1608

  434. Stream size : 64.2 KiB (0%)

  435. Language : Vietnamese

  436. Default : No

  437. Forced : No

  438. Text #32

  439. ID : 34

  440. Format : UTF-8

  441. Codec ID : S_TEXT/UTF8

  442. Codec ID/Info : UTF-8 Plain Text

  443. Duration : 2 h 18 min

  444. Bit rate : 48 b/s

  445. Count of elements : 1633

  446. Stream size : 49.4 KiB (0%)

  447. Title : Simplified

  448. Language : Chinese

  449. Default : No

  450. Forced : No

  451. Text #33

  452. ID : 35

  453. Format : UTF-8

  454. Codec ID : S_TEXT/UTF8

  455. Codec ID/Info : UTF-8 Plain Text

  456. Duration : 2 h 18 min

  457. Bit rate : 48 b/s

  458. Count of elements : 1625

  459. Stream size : 49.4 KiB (0%)

  460. Title : Traditional

  461. Language : Chinese

  462. Default : No

  463. Forced : No


复制代码



文件下载


除非特别注明,本文『野蛮交易[中英字幕].Furioza.2022.1080p.NF.WEB-DL.DDP.2.0.H.264-CTRLWEB 4.59GB』来源于互联网机器人自动抓取,非本站原创。 浮游电影网不对本文拥有版权,如有侵犯,请联系邮箱:fuyouu#yandex.com[#换成@]投诉。我们会在15个工作日内删除。 但烦请转载时请标明出处:“本文转载于『浮游电影网』,原文地址:https://www.fuyouu.com/21460.html

评论吧骚年!

发表你的见解   

昵称*

E-mail*(建议输入,以便收到博主回复的提示邮件)

验证码*

您可以使用eMule或eMule Mod(Windows)、aMule(Win、Linux、Mac)等软件下载eD2k链接。。
eMule收藏集(.emulecollection)文件是您选中的所有链接的列表文件。eMule可以直接下载它们。
按住SHIFT键选择可以选中多个选择框。
可用文件名和大小选择器来选择文件。
文件名选择器帮您根据文件名称或后缀来选择文件。不分大小写。
符号使用:
和:空格( )、+
不包含:-
或:|
转义:一对英文引号("");
匹配开头:^
匹配结尾:$
例如:
选中所有名称中包含有“eMule”或“0.49c”字眼,但不包含有“exe”字眼的:emule|0.49c -exe
选中所有名称的开头是“eMule”,结尾是“0.49c”的:^emule 0.49c$
选中所有名称中带有“eMule 0.49c”的(必须是“eMule 0.49c”,中间没有别的字符,不能是“eMule fake 0.49c”),需要转义:"emule 0.49c"
大小选择器帮您根据文件大小选择文件。