当前位置: 首页 >> 欧美电影 >> 新蝙蝠侠[中文字幕].The.Batman.2022.2160p.MA.WEB-DL.DDP5.1.Atmos.DV.MKV.x265-DVSUX 31.41GB >> 正文

新蝙蝠侠[中文字幕].The.Batman.2022.2160p.MA.WEB-DL.DDP5.1.Atmos.DV.MKV.x265-DVSUX 31.41GB

2022年04月19日 13:04:36     电影发布:来源于网络     电影分类:欧美电影     评论(0)    

新蝙蝠侠[中文字幕].The.Batman.2022.2160p.MA.WEB DL.DDP5.1.Atmos.DV.MKV.x265 DVSUX 31.41GB  欧美电影  第1张

◎译 名 新蝙蝠侠 / 蝙蝠侠(港 / 台) / 重启版蝙蝠侠

◎片 名 The Batman

◎年 代 2022

◎产 地 美国

◎类 别 剧情 / 动作 / 悬疑 / 犯罪

◎语 言 英语

◎上映日期 2022-03-18(中国大陆) / 2022-03-01(韩国) / 2022-03-04(美国) / 2022-04-19(美国网络)

◎IMDb链接 https://www.imdb.com/title/tt1877830/

◎豆瓣评分 7.6/10 (151658人评价)

◎豆瓣链接 https://movie.douban.com/subject/6424756/

◎片 长 175分钟

◎导 演 马特·里夫斯 Matt Reeves (id:1045032)

◎编 剧 马特·里夫斯 Matt Reeves (id:1045032)

彼得·克莱格 Peter Craig (id:1041402)

比尔·芬格 Bill Finger (id:1006536)

鲍勃·凯恩 Bob Kane (id:1041392)

马特森·汤姆林 Mattson Tomlin (id:1261166)

◎演 员 罗伯特·帕丁森 Robert Pattinson (id:1035656)

佐伊·克罗维兹 Zo? Kravitz (id:1229502)

保罗·达诺 Paul Dano (id:1027774)

科林·法瑞尔 Colin Farrell (id:1084255)

杰弗里·怀特 Jeffrey Wright (id:1036484)

安迪·瑟金斯 Andy Serkis (id:1002708)

约翰·特托罗 John Turturro (id:1031851)

彼得·萨斯加德 Peter Sarsgaard (id:1031800)

巴里·基奥恩 Barry Keoghan (id:1360874)

杰米·劳森 Jayme Lawson (id:1426399)

吉尔·佩雷斯-亚伯拉罕 Gil Perez-Abraham (id:1417825)

彼得·麦克唐纳德 Peter McDonald (id:1005405)

康·奥尼尔 Con O'Neill (id:1320053)

亚历克斯·费恩斯 Alex Ferns (id:1028439)

鲁伯特·彭利-琼斯 Rupert Penry-Jones (id:1136688)

科莎·恩格勒 Kosha Engler (id:1189258)

杰宁·哈瑞妮 Janine Harouni (id:1392803)

卢克·罗伯茨 Luke Roberts (id:1347621)

斯特拉·斯托克尔 Stella Stocker (id:1347692)

桑德拉·迪金森 Sandra Dickinson (id:1090104)

杰克·班尼特 Jack Bennett (id:1018997)

约瑟夫·巴德拉玛 Joseph Balderrama (id:1400929)

詹姆斯·伊莱斯 James Eeles (id:1376659)

小利莫尔·马雷特 Leemore Marrett Jr. (id:1463867)

斯图尔特·亚历山大 Stewart Alexander (id:1458669)

马库斯·奥尼卢德 Marcus Onilude (id:1466041)

埃琳娜·沙雷 Elena Saurel (id:1414357)

托德·博伊斯 Todd Boyce (id:1350567)

道格拉斯·罗素 Douglas Russell (id:1354930)

查尔斯·卡维尔 Charles Carver (id:1315305)

马克斯·卡维尔 Max Carver (id:1271263)

马克·基林 Mark Killeen (id:1354933)

洛娜·布朗 Lorna Brown (id:1279442)

埃利奥特·沃伦 Elliot Warren (id:1433606)

小田部阿基 Akie Kotabe (id:1231929)

布隆森·韦伯 Bronson Webb (id:1032080)

阿瑟·李 Arthur Lee (id:1411947)

派瑞 格拉斯普 Parry Glasspool (id:1350561)

娜塔丽·阿明 Nathalie Armin (id:1397366)

何塞?帕尔马 Jose Palma (id:1418875)

玛吉·巴基尔 Maggie Bakir (id:1454332)

露丝·霍洛克斯 Ruth Horrocks (id:1397361)

贝恩·科拉科 Bern Colla?o (id:1394212)

丹尼尔·厄根 Daniel Eghan (id:1367202)

雷切尔·汉德肖 Rachel Handshaw (id:1433060)

爵克·哈迪 Juke Hardy (id:1381994)

吉米·斯达 Jimmy Star (id:1273873)

马特·里夫斯 Matt Reeves (id:1045032)

迪伦·克拉克 Dylan Clark (id:1419902)

马切尔·E·尤斯兰 Michael E. Uslan (id:1413601)

迈克·吉亚奇诺 Michael Giacchino (id:1027937)

格雷格·弗莱瑟 Greig Fraser (id:1028361)

泰勒·纳尔逊 Tyler Nelson (id:1431508)

辛迪·托兰 Cindy Tolan (id:1303459)

詹姆斯·钦伦德 James Chinlund (id:1418711)

大卫·克罗斯曼 David Crossman (id:1006793)

杰奎琳·杜兰 Jacqueline Durran (id:1282857)

格林·狄龙 Glyn Dillon (id:1424821)

丹·赖蒙 Dan Lemmon (id:1289780)

◎简 介

布鲁斯·韦恩(罗伯特·帕丁森 饰)化身蝙蝠侠于哥谭市行侠仗义两年后,罪犯皆闻风丧胆,他也因此深入接触到哥谭市的阴暗面。他潜行于哥谭市腐败的政要名流关系网中,身边仅有的几个值得信赖的盟友——管家阿尔弗雷德·潘尼沃斯(安迪·瑟金斯 饰)与詹姆斯·戈登警长(杰弗里·怀特 饰)。这位独行的“义警侠探”在哥谭市民心中已成为“复仇”二字最当仁不让的代名词。

  1. Video

  2. ID : 1

  3. Format : HEVC

  4. Format/Info : High Efficiency Video Coding

  5. Format profile : Main [email protected]@High

  6. HDR format : Dolby Vision, Version 1.0, dvhe.05.06, BL+RPU

  7. Codec ID : V_MPEGH/ISO/HEVC

  8. Duration : 2 h 56 min

  9. Bit rate : 24.7 Mb/s

  10. Width : 3 840 pixels

  11. Height : 2 160 pixels

  12. Display aspect ratio : 16:9

  13. Frame rate mode : Constant

  14. Frame rate : 23.976 (24000/1001/53354) FPS

  15. Color space : YUV

  16. Chroma subsampling : 4:2:0 (Type 0)

  17. Bit depth : 10 bits

  18. Bits/(Pixel*Frame) : 0.124

  19. Stream size : 30.5 GiB (97%)

  20. Language : English

  21. Default : Yes

  22. Forced : No

  23. Color range : Full


  24. Audio

  25. ID : 2

  26. Format : E-AC-3 JOC

  27. Format/Info : Enhanced AC-3 with Joint Object Coding

  28. Commercial name : Dolby Digital Plus with Dolby Atmos

  29. Codec ID : A_EAC3

  30. Duration : 2 h 56 min

  31. Bit rate mode : Constant

  32. Bit rate : 768 kb/s

  33. Channel(s) : 6 channels

  34. Channel layout : L R C LFE Ls Rs

  35. Sampling rate : 48.0 kHz

  36. Frame rate : 31.250 FPS (1536 SPF)

  37. Compression mode : Lossy

  38. Delay relative to video : 210 ms

  39. Stream size : 968 MiB (3%)

  40. Language : English

  41. Service kind : Complete Main

  42. Default : Yes

  43. Forced : No

  44. Complexity index : 16

  45. Number of dynamic objects : 15

  46. Bed channel count : 1 channel

  47. Bed channel configuration : LFE


  48. Text #1

  49. ID : 3

  50. Format : UTF-8

  51. Codec ID : S_TEXT/UTF8

  52. Codec ID/Info : UTF-8 Plain Text

  53. Duration : 2 h 43 min

  54. Bit rate : 45 b/s

  55. Count of elements : 2040

  56. Stream size : 54.7 KiB (0%)

  57. Language : English

  58. Default : Yes

  59. Forced : No


  60. Text #2

  61. ID : 4

  62. Format : UTF-8

  63. Codec ID : S_TEXT/UTF8

  64. Codec ID/Info : UTF-8 Plain Text

  65. Duration : 2 h 55 min

  66. Bit rate : 53 b/s

  67. Count of elements : 2573

  68. Stream size : 69.3 KiB (0%)

  69. Title : SDH

  70. Language : English

  71. Default : No

  72. Forced : No


  73. Text #3

  74. ID : 5

  75. Format : UTF-8

  76. Codec ID : S_TEXT/UTF8

  77. Codec ID/Info : UTF-8 Plain Text

  78. Duration : 2 h 55 min

  79. Bit rate : 75 b/s

  80. Count of elements : 1937

  81. Stream size : 97.4 KiB (0%)

  82. Language : Arabic

  83. Default : No

  84. Forced : No


  85. Text #4

  86. ID : 6

  87. Format : UTF-8

  88. Codec ID : S_TEXT/UTF8

  89. Codec ID/Info : UTF-8 Plain Text

  90. Duration : 2 h 55 min

  91. Bit rate : 65 b/s

  92. Count of elements : 1918

  93. Stream size : 84.9 KiB (0%)

  94. Language : Bulgarian

  95. Default : No

  96. Forced : No


  97. Text #5

  98. ID : 7

  99. Format : UTF-8

  100. Codec ID : S_TEXT/UTF8

  101. Codec ID/Info : UTF-8 Plain Text

  102. Duration : 2 h 55 min

  103. Bit rate : 41 b/s

  104. Count of elements : 2074

  105. Stream size : 54.1 KiB (0%)

  106. Title : Chinese Simplified

  107. Language : Chinese

  108. Default : No

  109. Forced : No


  110. Text #6

  111. ID : 8

  112. Format : UTF-8

  113. Codec ID : S_TEXT/UTF8

  114. Codec ID/Info : UTF-8 Plain Text

  115. Duration : 2 h 54 min

  116. Bit rate : 36 b/s

  117. Count of elements : 1812

  118. Stream size : 46.5 KiB (0%)

  119. Title : Chinese Traditional

  120. Language : Chinese

  121. Default : No

  122. Forced : No


  123. Text #7

  124. ID : 9

  125. Format : UTF-8

  126. Codec ID : S_TEXT/UTF8

  127. Codec ID/Info : UTF-8 Plain Text

  128. Duration : 2 h 54 min

  129. Bit rate : 39 b/s

  130. Count of elements : 1926

  131. Stream size : 50.5 KiB (0%)

  132. Language : Czech

  133. Default : No

  134. Forced : No


  135. Text #8

  136. ID : 10

  137. Format : UTF-8

  138. Codec ID : S_TEXT/UTF8

  139. Codec ID/Info : UTF-8 Plain Text

  140. Duration : 2 h 53 min

  141. Bit rate : 36 b/s

  142. Count of elements : 1259

  143. Stream size : 46.0 KiB (0%)

  144. Language : Danish

  145. Default : No

  146. Forced : No


  147. Text #9

  148. ID : 11

  149. Format : UTF-8

  150. Codec ID : S_TEXT/UTF8

  151. Codec ID/Info : UTF-8 Plain Text

  152. Duration : 2 h 55 min

  153. Bit rate : 55 b/s

  154. Count of elements : 1864

  155. Stream size : 71.9 KiB (0%)

  156. Title : SDH

  157. Language : German

  158. Default : No

  159. Forced : No


  160. Text #10

  161. ID : 12

  162. Format : UTF-8

  163. Codec ID : S_TEXT/UTF8

  164. Codec ID/Info : UTF-8 Plain Text

  165. Duration : 2 h 54 min

  166. Bit rate : 48 b/s

  167. Count of elements : 1581

  168. Stream size : 62.2 KiB (0%)

  169. Language : German

  170. Default : No

  171. Forced : No


  172. Text #11

  173. ID : 13

  174. Format : UTF-8

  175. Codec ID : S_TEXT/UTF8

  176. Codec ID/Info : UTF-8 Plain Text

  177. Duration : 2 h 54 min

  178. Bit rate : 68 b/s

  179. Count of elements : 1912

  180. Stream size : 87.4 KiB (0%)

  181. Language : Greek

  182. Default : No

  183. Forced : No


  184. Text #12

  185. ID : 14

  186. Format : UTF-8

  187. Codec ID : S_TEXT/UTF8

  188. Codec ID/Info : UTF-8 Plain Text

  189. Duration : 2 h 54 min

  190. Bit rate : 41 b/s

  191. Count of elements : 1905

  192. Stream size : 52.8 KiB (0%)

  193. Language : Spanish

  194. Default : No

  195. Forced : No


  196. Text #13

  197. ID : 15

  198. Format : UTF-8

  199. Codec ID : S_TEXT/UTF8

  200. Codec ID/Info : UTF-8 Plain Text

  201. Duration : 2 h 54 min

  202. Bit rate : 43 b/s

  203. Count of elements : 1928

  204. Stream size : 55.9 KiB (0%)

  205. Title : Latin American

  206. Language : Spanish

  207. Default : No

  208. Forced : No


  209. Text #14

  210. ID : 16

  211. Format : UTF-8

  212. Codec ID : S_TEXT/UTF8

  213. Codec ID/Info : UTF-8 Plain Text

  214. Duration : 2 h 54 min

  215. Bit rate : 47 b/s

  216. Count of elements : 1947

  217. Stream size : 60.3 KiB (0%)

  218. Language : Estonian

  219. Default : No

  220. Forced : No


  221. Text #15

  222. ID : 17

  223. Format : UTF-8

  224. Codec ID : S_TEXT/UTF8

  225. Codec ID/Info : UTF-8 Plain Text

  226. Duration : 2 h 54 min

  227. Bit rate : 44 b/s

  228. Count of elements : 1940

  229. Stream size : 56.6 KiB (0%)

  230. Language : Finnish

  231. Default : No

  232. Forced : No


  233. Text #16

  234. ID : 18

  235. Format : UTF-8

  236. Codec ID : S_TEXT/UTF8

  237. Codec ID/Info : UTF-8 Plain Text

  238. Duration : 2 h 54 min

  239. Bit rate : 67 b/s

  240. Count of elements : 1929

  241. Stream size : 86.7 KiB (0%)

  242. Language : Hebrew

  243. Default : No

  244. Forced : No


  245. Text #17

  246. ID : 19

  247. Format : UTF-8

  248. Codec ID : S_TEXT/UTF8

  249. Codec ID/Info : UTF-8 Plain Text

  250. Duration : 2 h 54 min

  251. Bit rate : 38 b/s

  252. Count of elements : 1451

  253. Stream size : 49.0 KiB (0%)

  254. Language : Hungarian

  255. Default : No

  256. Forced : No


  257. Text #18

  258. ID : 20

  259. Format : UTF-8

  260. Codec ID : S_TEXT/UTF8

  261. Codec ID/Info : UTF-8 Plain Text

  262. Duration : 2 h 54 min

  263. Bit rate : 39 b/s

  264. Count of elements : 1928

  265. Stream size : 50.5 KiB (0%)

  266. Language : Indonesian

  267. Default : No

  268. Forced : No


  269. Text #19

  270. ID : 21

  271. Format : UTF-8

  272. Codec ID : S_TEXT/UTF8

  273. Codec ID/Info : UTF-8 Plain Text

  274. Duration : 2 h 55 min

  275. Bit rate : 54 b/s

  276. Count of elements : 2513

  277. Stream size : 69.8 KiB (0%)

  278. Title : SDH

  279. Language : Italian

  280. Default : No

  281. Forced : No


  282. Text #20

  283. ID : 22

  284. Format : UTF-8

  285. Codec ID : S_TEXT/UTF8

  286. Codec ID/Info : UTF-8 Plain Text

  287. Duration : 2 h 54 min

  288. Bit rate : 42 b/s

  289. Count of elements : 1971

  290. Stream size : 54.3 KiB (0%)

  291. Language : Italian

  292. Default : No

  293. Forced : No


  294. Text #21

  295. ID : 23

  296. Format : UTF-8

  297. Codec ID : S_TEXT/UTF8

  298. Codec ID/Info : UTF-8 Plain Text

  299. Duration : 2 h 54 min

  300. Bit rate : 36 b/s

  301. Count of elements : 1773

  302. Stream size : 46.5 KiB (0%)

  303. Language : Japanese

  304. Default : No

  305. Forced : No


  306. Text #22

  307. ID : 24

  308. Format : UTF-8

  309. Codec ID : S_TEXT/UTF8

  310. Codec ID/Info : UTF-8 Plain Text

  311. Duration : 2 h 55 min

  312. Bit rate : 34 b/s

  313. Count of elements : 1895

  314. Stream size : 44.2 KiB (0%)

  315. Language : Korean

  316. Default : No

  317. Forced : No


  318. Text #23

  319. ID : 25

  320. Format : UTF-8

  321. Codec ID : S_TEXT/UTF8

  322. Codec ID/Info : UTF-8 Plain Text

  323. Duration : 2 h 55 min

  324. Bit rate : 41 b/s

  325. Count of elements : 1924

  326. Stream size : 54.0 KiB (0%)

  327. Language : Lithuanian

  328. Default : No

  329. Forced : No


  330. Text #24

  331. ID : 26

  332. Format : UTF-8

  333. Codec ID : S_TEXT/UTF8

  334. Codec ID/Info : UTF-8 Plain Text

  335. Duration : 2 h 55 min

  336. Bit rate : 41 b/s

  337. Count of elements : 1953

  338. Stream size : 54.0 KiB (0%)

  339. Language : Latvian

  340. Default : No

  341. Forced : No


  342. Text #25

  343. ID : 27

  344. Format : UTF-8

  345. Codec ID : S_TEXT/UTF8

  346. Codec ID/Info : UTF-8 Plain Text

  347. Duration : 2 h 53 min

  348. Bit rate : 37 b/s

  349. Count of elements : 1333

  350. Stream size : 47.6 KiB (0%)

  351. Language : Dutch

  352. Default : No

  353. Forced : No


  354. Text #26

  355. ID : 28

  356. Format : UTF-8

  357. Codec ID : S_TEXT/UTF8

  358. Codec ID/Info : UTF-8 Plain Text

  359. Duration : 2 h 54 min

  360. Bit rate : 38 b/s

  361. Count of elements : 1554

  362. Stream size : 49.5 KiB (0%)

  363. Language : Norwegian

  364. Default : No

  365. Forced : No


  366. Text #27

  367. ID : 29

  368. Format : UTF-8

  369. Codec ID : S_TEXT/UTF8

  370. Codec ID/Info : UTF-8 Plain Text

  371. Duration : 2 h 54 min

  372. Bit rate : 36 b/s

  373. Count of elements : 1843

  374. Stream size : 46.7 KiB (0%)

  375. Language : Polish

  376. Default : No

  377. Forced : No


  378. Text #28

  379. ID : 30

  380. Format : UTF-8

  381. Codec ID : S_TEXT/UTF8

  382. Codec ID/Info : UTF-8 Plain Text

  383. Duration : 2 h 54 min

  384. Bit rate : 45 b/s

  385. Count of elements : 1903

  386. Stream size : 57.4 KiB (0%)

  387. Language : Portuguese

  388. Default : No

  389. Forced : No


  390. Text #29

  391. ID : 31

  392. Format : UTF-8

  393. Codec ID : S_TEXT/UTF8

  394. Codec ID/Info : UTF-8 Plain Text

  395. Duration : 2 h 54 min

  396. Bit rate : 42 b/s

  397. Count of elements : 1919

  398. Stream size : 54.3 KiB (0%)

  399. Title : Brazilian

  400. Language : Portuguese

  401. Default : No

  402. Forced : No


  403. Text #30

  404. ID : 32

  405. Format : UTF-8

  406. Codec ID : S_TEXT/UTF8

  407. Codec ID/Info : UTF-8 Plain Text

  408. Duration : 2 h 54 min

  409. Bit rate : 36 b/s

  410. Count of elements : 1856

  411. Stream size : 46.4 KiB (0%)

  412. Language : Slovak

  413. Default : No

  414. Forced : No


  415. Text #31

  416. ID : 33

  417. Format : UTF-8

  418. Codec ID : S_TEXT/UTF8

  419. Codec ID/Info : UTF-8 Plain Text

  420. Duration : 2 h 54 min

  421. Bit rate : 38 b/s

  422. Count of elements : 1400

  423. Stream size : 49.0 KiB (0%)

  424. Language : Swedish

  425. Default : No

  426. Forced : No


  427. Text #32

  428. ID : 34

  429. Format : UTF-8

  430. Codec ID : S_TEXT/UTF8

  431. Codec ID/Info : UTF-8 Plain Text

  432. Duration : 2 h 55 min

  433. Bit rate : 99 b/s

  434. Count of elements : 1928

  435. Stream size : 128 KiB (0%)

  436. Language : Thai

  437. Default : No

  438. Forced : No


  439. Text #33

  440. ID : 35

  441. Format : UTF-8

  442. Codec ID : S_TEXT/UTF8

  443. Codec ID/Info : UTF-8 Plain Text

  444. Duration : 2 h 54 min

  445. Bit rate : 42 b/s

  446. Count of elements : 1920

  447. Stream size : 54.4 KiB (0%)

  448. Language : Turkish

  449. Default : No

  450. Forced : No


  451. Menu

  452. 00:00:00.000 : en:1

  453. 00:12:02.000 : en:2

  454. 00:23:22.000 : en:3

  455. 00:32:56.000 : en:4

  456. 00:44:38.000 : en:5

  457. 00:55:44.000 : en:6

  458. 01:04:06.000 : en:7

  459. 01:15:51.000 : en:8

  460. 01:27:06.000 : en:9

  461. 01:40:48.000 : en:10

  462. 01:52:12.000 : en:11

  463. 02:00:47.000 : en:12

  464. 02:11:39.000 : en:13

  465. 02:21:06.000 : en:14

  466. 02:33:06.000 : en:15

  467. 02:45:27.000 : en:16

复制代码

新蝙蝠侠[中文字幕].The.Batman.2022.2160p.MA.WEB DL.DDP5.1.Atmos.DV.MKV.x265 DVSUX 31.41GB  欧美电影  第2张 新蝙蝠侠[中文字幕].The.Batman.2022.2160p.MA.WEB DL.DDP5.1.Atmos.DV.MKV.x265 DVSUX 31.41GB  欧美电影  第3张 新蝙蝠侠[中文字幕].The.Batman.2022.2160p.MA.WEB DL.DDP5.1.Atmos.DV.MKV.x265 DVSUX 31.41GB  欧美电影  第4张



文件下载


除非特别注明,本文『新蝙蝠侠[中文字幕].The.Batman.2022.2160p.MA.WEB-DL.DDP5.1.Atmos.DV.MKV.x265-DVSUX 31.41GB』来源于互联网机器人自动抓取,非本站原创。 浮游电影网不对本文拥有版权,如有侵犯,请联系邮箱:fuyouu#yandex.com[#换成@]投诉。我们会在15个工作日内删除。 但烦请转载时请标明出处:“本文转载于『浮游电影网』,原文地址:https://www.fuyouu.com/21459.html

评论吧骚年!

发表你的见解   

昵称*

E-mail*(建议输入,以便收到博主回复的提示邮件)

验证码*

您可以使用eMule或eMule Mod(Windows)、aMule(Win、Linux、Mac)等软件下载eD2k链接。。
eMule收藏集(.emulecollection)文件是您选中的所有链接的列表文件。eMule可以直接下载它们。
按住SHIFT键选择可以选中多个选择框。
可用文件名和大小选择器来选择文件。
文件名选择器帮您根据文件名称或后缀来选择文件。不分大小写。
符号使用:
和:空格( )、+
不包含:-
或:|
转义:一对英文引号("");
匹配开头:^
匹配结尾:$
例如:
选中所有名称中包含有“eMule”或“0.49c”字眼,但不包含有“exe”字眼的:emule|0.49c -exe
选中所有名称的开头是“eMule”,结尾是“0.49c”的:^emule 0.49c$
选中所有名称中带有“eMule 0.49c”的(必须是“eMule 0.49c”,中间没有别的字符,不能是“eMule fake 0.49c”),需要转义:"emule 0.49c"
大小选择器帮您根据文件大小选择文件。