当前位置: 首页 >> 欧美电影 >> 新蝙蝠侠[内封院线中文字幕调成双语].The.Batman.2022.2160p.HMAX.WEB-DL.DDP.5.1.Atmos.HDR.H.265-CTRLWEB 23.06GB >> 正文

新蝙蝠侠[内封院线中文字幕调成双语].The.Batman.2022.2160p.HMAX.WEB-DL.DDP.5.1.Atmos.HDR.H.265-CTRLWEB 23.06GB

2022年04月19日 13:00:47     电影发布:来源于网络     电影分类:欧美电影     评论(0)    

新蝙蝠侠[内封院线中文字幕调成双语].The.Batman.2022.2160p.HMAX.WEB DL.DDP.5.1.Atmos.HDR.H.265 CTRLWEB 23.06GB  欧美电影  第1张

◎译 名 新蝙蝠侠 / 蝙蝠侠(港 / 台) / 重启版蝙蝠侠

◎片 名 The Batman

◎年 代 2022

◎产 地 美国

◎类 别 剧情 / 动作 / 悬疑 / 犯罪

◎语 言 英语

◎上映日期 2022-03-18(中国大陆) / 2022-03-01(韩国) / 2022-03-04(美国) / 2022-04-19(美国网络)

◎IMDb链接 https://www.imdb.com/title/tt1877830/

◎豆瓣评分 7.6/10 (151658人评价)

◎豆瓣链接 https://movie.douban.com/subject/6424756/

◎片 长 175分钟

◎导 演 马特·里夫斯 Matt Reeves (id:1045032)

◎编 剧 马特·里夫斯 Matt Reeves (id:1045032)

彼得·克莱格 Peter Craig (id:1041402)

比尔·芬格 Bill Finger (id:1006536)

鲍勃·凯恩 Bob Kane (id:1041392)

马特森·汤姆林 Mattson Tomlin (id:1261166)

◎演 员 罗伯特·帕丁森 Robert Pattinson (id:1035656)

佐伊·克罗维兹 Zo? Kravitz (id:1229502)

保罗·达诺 Paul Dano (id:1027774)

科林·法瑞尔 Colin Farrell (id:1084255)

杰弗里·怀特 Jeffrey Wright (id:1036484)

安迪·瑟金斯 Andy Serkis (id:1002708)

约翰·特托罗 John Turturro (id:1031851)

彼得·萨斯加德 Peter Sarsgaard (id:1031800)

巴里·基奥恩 Barry Keoghan (id:1360874)

杰米·劳森 Jayme Lawson (id:1426399)

吉尔·佩雷斯-亚伯拉罕 Gil Perez-Abraham (id:1417825)

彼得·麦克唐纳德 Peter McDonald (id:1005405)

康·奥尼尔 Con O'Neill (id:1320053)

亚历克斯·费恩斯 Alex Ferns (id:1028439)

鲁伯特·彭利-琼斯 Rupert Penry-Jones (id:1136688)

科莎·恩格勒 Kosha Engler (id:1189258)

杰宁·哈瑞妮 Janine Harouni (id:1392803)

卢克·罗伯茨 Luke Roberts (id:1347621)

斯特拉·斯托克尔 Stella Stocker (id:1347692)

桑德拉·迪金森 Sandra Dickinson (id:1090104)

杰克·班尼特 Jack Bennett (id:1018997)

约瑟夫·巴德拉玛 Joseph Balderrama (id:1400929)

詹姆斯·伊莱斯 James Eeles (id:1376659)

小利莫尔·马雷特 Leemore Marrett Jr. (id:1463867)

斯图尔特·亚历山大 Stewart Alexander (id:1458669)

马库斯·奥尼卢德 Marcus Onilude (id:1466041)

埃琳娜·沙雷 Elena Saurel (id:1414357)

托德·博伊斯 Todd Boyce (id:1350567)

道格拉斯·罗素 Douglas Russell (id:1354930)

查尔斯·卡维尔 Charles Carver (id:1315305)

马克斯·卡维尔 Max Carver (id:1271263)

马克·基林 Mark Killeen (id:1354933)

洛娜·布朗 Lorna Brown (id:1279442)

埃利奥特·沃伦 Elliot Warren (id:1433606)

小田部阿基 Akie Kotabe (id:1231929)

布隆森·韦伯 Bronson Webb (id:1032080)

阿瑟·李 Arthur Lee (id:1411947)

派瑞 格拉斯普 Parry Glasspool (id:1350561)

娜塔丽·阿明 Nathalie Armin (id:1397366)

何塞?帕尔马 Jose Palma (id:1418875)

玛吉·巴基尔 Maggie Bakir (id:1454332)

露丝·霍洛克斯 Ruth Horrocks (id:1397361)

贝恩·科拉科 Bern Colla?o (id:1394212)

丹尼尔·厄根 Daniel Eghan (id:1367202)

雷切尔·汉德肖 Rachel Handshaw (id:1433060)

爵克·哈迪 Juke Hardy (id:1381994)

吉米·斯达 Jimmy Star (id:1273873)

马特·里夫斯 Matt Reeves (id:1045032)

迪伦·克拉克 Dylan Clark (id:1419902)

马切尔·E·尤斯兰 Michael E. Uslan (id:1413601)

迈克·吉亚奇诺 Michael Giacchino (id:1027937)

格雷格·弗莱瑟 Greig Fraser (id:1028361)

泰勒·纳尔逊 Tyler Nelson (id:1431508)

辛迪·托兰 Cindy Tolan (id:1303459)

詹姆斯·钦伦德 James Chinlund (id:1418711)

大卫·克罗斯曼 David Crossman (id:1006793)

杰奎琳·杜兰 Jacqueline Durran (id:1282857)

格林·狄龙 Glyn Dillon (id:1424821)

丹·赖蒙 Dan Lemmon (id:1289780)

◎简 介

布鲁斯·韦恩(罗伯特·帕丁森 饰)化身蝙蝠侠于哥谭市行侠仗义两年后,罪犯皆闻风丧胆,他也因此深入接触到哥谭市的阴暗面。他潜行于哥谭市腐败的政要名流关系网中,身边仅有的几个值得信赖的盟友——管家阿尔弗雷德·潘尼沃斯(安迪·瑟金斯 饰)与詹姆斯·戈登警长(杰弗里·怀特 饰)。这位独行的“义警侠探”在哥谭市民心中已成为“复仇”二字最当仁不让的代名词。

  1. ##### MediaInfo ######

  2. General

  3. Unique ID : 59462430336799869113125271189232442694 (0x2CBC0C29F43DD9F85B6A1142B60E5D46)

  4. Complete name : T[email protected]CHDWEB.mkv

  5. Format : Matroska

  6. Format version : Version 4

  7. File size : 23.1 GiB

  8. Duration : 2 h 56 min

  9. Overall bit rate : 18.7 Mb/s

  10. Encoded date : UTC 2022-04-18 07:52:20

  11. Writing application : mkvmerge v65.0.0 ('Too Much') 64-bit

  12. Writing library : libebml v1.4.2 + libmatroska v1.6.4

  13. Video

  14. ID : 1

  15. Format : HEVC

  16. Format/Info : High Efficiency Video Coding

  17. Format profile : Main [email protected]@Main

  18. HDR format : SMPTE ST 2086, HDR10 compatible

  19. Codec ID : V_MPEGH/ISO/HEVC

  20. Duration : 2 h 56 min

  21. Bit rate : 18.0 Mb/s

  22. Width : 3 840 pixels

  23. Height : 2 160 pixels

  24. Display aspect ratio : 16:9

  25. Frame rate mode : Constant

  26. Frame rate : 23.976 (24000/1001/53354) FPS

  27. Color space : YUV

  28. Chroma subsampling : 4:2:0

  29. Bit depth : 10 bits

  30. Bits/(Pixel*Frame) : 0.090

  31. Stream size : 22.1 GiB (96%)

  32. Writing library : x265 3.4hy:[Linux][GCC 7.5.0][64 bit] 10bit

  33. Encoding settings : cpuid=533541111039 / frame-threads=1 / wpp / no-pmode / no-pme / no-psnr / no-ssim / log-level=2 / input-csp=1 / input-res=3840x2160 / interlace=0 / total-frames=0 / level-idc=0 / high-tier=1 / uhd-bd=0 / ref=4 / no-allow-non-conformance / repeat-headers / annexb / no-aud / no-hrd / info / hash=0 / no-temporal-layers / no-open-gop / min-keyint=96 / keyint=96 / gop-lookahead=0 / bframes=3 / b-adapt=2 / b-pyramid / bframe-bias=0 / rc-lookahead=25 / lookahead-slices=4 / NTMzNTQ=uuDQuD2mJt9fsCf / scenecut=40 / hist-scenecut=0 / radl=0 / no-splice / no-intra-refresh / ctu=64 / min-cu-size=8 / rect / no-amp / max-tu-size=32 / tu-inter-depth=1 / tu-intra-depth=1 / limit-tu=0 / rdoq-level=2 / dynamic-rd=0.00 / no-ssim-rd / signhide / no-tskip / nr-intra=0 / nr-inter=0 / no-constrained-intra / strong-intra-smoothing / max-merge=3 / limit-refs=3 / limit-modes / me=3 / subme=3 / merange=57 / temporal-mvp / no-frame-dup / no-hme / weightp / no-weightb / no-analyze-src-pics / deblock=0:0 / sao / no-sao-non-deblock / rd=4 / selective-sao=4 / no-early-skip / rskip / no-fast-intra / no-tskip-fast / no-cu-lossless / no-b-intra / no-splitrd-skip / rdpenalty=0 / psy-rd=2.00 / psy-rdoq=1.00 / no-rd-refine / no-lossless / cbqpoffs=0 / crqpoffs=0 / rc=abr / bitrate=18000 / qcomp=0.60 / qpstep=4 / stats-write=0 / stats-read=2 / cplxblur=20.0 / qblur=0.5 / vbv-maxrate=24500 / vbv-bufsize=24500 / vbv-init=0.6 / vbv-end=0.6 / vbv-end-fr-adj=0.0 / ipratio=1.40 / pbratio=1.30 / aq-mode=2 / aq-strength=1.00 / cutree / zone-count=0 / no-strict-cbr / qg-size=32 / no-rc-grain / qpmax=69 / qpmin=0 / no-const-vbv / sar=0 / overscan=0 / videoformat=5 / range=0 / colorprim=9 / transfer=16 / colormatrix=9 / chromaloc=0 / display-window=0 / master-display=G(13250,34500)B(7500,3000)R(34000,16000)WP(15635,16450)L(10000000,1) / cll=413,65 / min-luma=0 / max-luma=1023 / log2-max-poc-lsb=8 / vui-timing-info / vui-hrd-info / no-concatenation / slices=1 / no-opt-qp-pps / no-opt-ref-list-length-pps / no-multi-pass-opt-rps / scenecut-bias=0.05 / hist-threshold=0.01 / no-opt-cu-delta-qp / no-aq-motion / hdr10 / no-hdr10-opt / no-dhdr10-opt / no-idr-recovery-sei / analysis-reuse-level=0 / analysis-save-reuse-level=0 / analysis-load-reuse-level=0 / scale-factor=0 / refine-intra=0 / refine-inter=0 / refine-mv=1 / refine-ctu-distortion=0 / no-limit-sao / ctu-info=0 / no-lowpass-dct / refine-analysis-type=0 / copy-pic=1 / max-ausize-factor=1.0 / no-dynamic-refine / no-single-sei / no-hevc-aq / no-svt / no-field / qp-adaptation-range=1.00 / no-scenecut-aware-qpconformance-window-offsets / right=0 / bottom=0 / NTMzNTQ= / decoder-max-rate=0

  34. Language : English

  35. Default : Yes

  36. Forced : No

  37. Color range : Limited

  38. Color primaries : BT.2020

  39. Transfer characteristics : PQ

  40. Matrix coefficients : BT.2020 non-constant

  41. Mastering display color primaries : Display P3

  42. Mastering display luminance : min: 0.0001 cd/m2, max: 1000 cd/m2

  43. Maximum Content Light Level : 413 cd/m2

  44. Maximum Frame-Average Light Level : 65 cd/m2

  45. Audio

  46. ID : 2

  47. Format : E-AC-3 JOC

  48. Format/Info : Enhanced AC-3 with Joint Object Coding

  49. Commercial name : Dolby Digital Plus with Dolby Atmos

  50. Codec ID : A_EAC3

  51. Duration : 2 h 56 min

  52. Bit rate mode : Constant

  53. Bit rate : 768 kb/s

  54. Channel(s) : 6 channels

  55. Channel layout : L R C LFE Ls Rs

  56. Sampling rate : 48.0 kHz

  57. Frame rate : 31.250 FPS (1536 SPF)

  58. Compression mode : Lossy

  59. Stream size : 968 MiB (4%)

  60. Language : English

  61. Service kind : Complete Main

  62. Default : Yes

  63. Forced : No

  64. Complexity index : 16

  65. Number of dynamic objects : 15

  66. Bed channel count : 1 channel

  67. Bed channel configuration : LFE

  68. Text #1

  69. ID : 3

  70. Format : UTF-8

  71. Codec ID : S_TEXT/UTF8

  72. Codec ID/Info : UTF-8 Plain Text

  73. Duration : 2 h 55 min

  74. Bit rate : 53 b/s

  75. Count of elements : 2573

  76. Stream size : 69.3 KiB (0%)

  77. Title : SDH

  78. Language : English

  79. Default : No

  80. Forced : No

  81. Text #2

  82. ID : 4

  83. Format : UTF-8

  84. Codec ID : S_TEXT/UTF8

  85. Codec ID/Info : UTF-8 Plain Text

  86. Duration : 2 h 55 min

  87. Bit rate : 65 b/s

  88. Count of elements : 1918

  89. Stream size : 84.8 KiB (0%)

  90. Language : Bulgarian

  91. Default : No

  92. Forced : No

  93. Text #3

  94. ID : 5

  95. Format : UTF-8

  96. Codec ID : S_TEXT/UTF8

  97. Codec ID/Info : UTF-8 Plain Text

  98. Duration : 2 h 54 min

  99. Bit rate : 39 b/s

  100. Count of elements : 1926

  101. Stream size : 50.4 KiB (0%)

  102. Title : Czechia

  103. Language : Czech

  104. Default : No

  105. Forced : No

  106. Text #4

  107. ID : 6

  108. Format : UTF-8

  109. Codec ID : S_TEXT/UTF8

  110. Codec ID/Info : UTF-8 Plain Text

  111. Duration : 2 h 53 min

  112. Bit rate : 35 b/s

  113. Count of elements : 1259

  114. Stream size : 45.8 KiB (0%)

  115. Title : Denmark

  116. Language : Danish

  117. Default : No

  118. Forced : No

  119. Text #5

  120. ID : 7

  121. Format : UTF-8

  122. Codec ID : S_TEXT/UTF8

  123. Codec ID/Info : UTF-8 Plain Text

  124. Duration : 2 h 55 min

  125. Bit rate : 53 b/s

  126. Count of elements : 2555

  127. Stream size : 68.3 KiB (0%)

  128. Title : Latin America (SDH)

  129. Language : Spanish

  130. Default : No

  131. Forced : No

  132. Text #6

  133. ID : 8

  134. Format : UTF-8

  135. Codec ID : S_TEXT/UTF8

  136. Codec ID/Info : UTF-8 Plain Text

  137. Duration : 2 h 54 min

  138. Bit rate : 43 b/s

  139. Count of elements : 1928

  140. Stream size : 55.8 KiB (0%)

  141. Title : Latin America

  142. Language : Spanish

  143. Default : No

  144. Forced : No

  145. Text #7

  146. ID : 9

  147. Format : UTF-8

  148. Codec ID : S_TEXT/UTF8

  149. Codec ID/Info : UTF-8 Plain Text

  150. Duration : 2 h 54 min

  151. Bit rate : 41 b/s

  152. Count of elements : 1905

  153. Stream size : 52.7 KiB (0%)

  154. Language : Spanish

  155. Default : No

  156. Forced : No

  157. Text #8

  158. ID : 10

  159. Format : UTF-8

  160. Codec ID : S_TEXT/UTF8

  161. Codec ID/Info : UTF-8 Plain Text

  162. Duration : 2 h 54 min

  163. Bit rate : 44 b/s

  164. Count of elements : 1940

  165. Stream size : 56.6 KiB (0%)

  166. Language : Finnish

  167. Default : No

  168. Forced : No

  169. Text #9

  170. ID : 11

  171. Format : UTF-8

  172. Codec ID : S_TEXT/UTF8

  173. Codec ID/Info : UTF-8 Plain Text

  174. Duration : 2 h 54 min

  175. Bit rate : 40 b/s

  176. Count of elements : 1884

  177. Stream size : 52.3 KiB (0%)

  178. Language : Croatian

  179. Default : No

  180. Forced : No

  181. Text #10

  182. ID : 12

  183. Format : UTF-8

  184. Codec ID : S_TEXT/UTF8

  185. Codec ID/Info : UTF-8 Plain Text

  186. Duration : 2 h 54 min

  187. Bit rate : 38 b/s

  188. Count of elements : 1451

  189. Stream size : 48.9 KiB (0%)

  190. Language : Hungarian

  191. Default : No

  192. Forced : No

  193. Text #11

  194. ID : 13

  195. Format : UTF-8

  196. Codec ID : S_TEXT/UTF8

  197. Codec ID/Info : UTF-8 Plain Text

  198. Duration : 2 h 54 min

  199. Bit rate : 66 b/s

  200. Count of elements : 1912

  201. Stream size : 85.4 KiB (0%)

  202. Language : Macedonian

  203. Default : No

  204. Forced : No

  205. Text #12

  206. ID : 14

  207. Format : UTF-8

  208. Codec ID : S_TEXT/UTF8

  209. Codec ID/Info : UTF-8 Plain Text

  210. Duration : 2 h 54 min

  211. Bit rate : 38 b/s

  212. Count of elements : 1554

  213. Stream size : 49.3 KiB (0%)

  214. Title : Norway

  215. Language : Norwegian Bokmal

  216. Default : No

  217. Forced : No

  218. Text #13

  219. ID : 15

  220. Format : UTF-8

  221. Codec ID : S_TEXT/UTF8

  222. Codec ID/Info : UTF-8 Plain Text

  223. Duration : 2 h 53 min

  224. Bit rate : 37 b/s

  225. Count of elements : 1333

  226. Stream size : 47.6 KiB (0%)

  227. Language : Dutch

  228. Default : No

  229. Forced : No

  230. Text #14

  231. ID : 16

  232. Format : UTF-8

  233. Codec ID : S_TEXT/UTF8

  234. Codec ID/Info : UTF-8 Plain Text

  235. Duration : 2 h 54 min

  236. Bit rate : 36 b/s

  237. Count of elements : 1843

  238. Stream size : 46.6 KiB (0%)

  239. Language : Polish

  240. Default : No

  241. Forced : No

  242. Text #15

  243. ID : 17

  244. Format : UTF-8

  245. Codec ID : S_TEXT/UTF8

  246. Codec ID/Info : UTF-8 Plain Text

  247. Duration : 2 h 54 min

  248. Bit rate : 42 b/s

  249. Count of elements : 1919

  250. Stream size : 54.2 KiB (0%)

  251. Title : Brazil

  252. Language : Portuguese

  253. Default : No

  254. Forced : No

  255. Text #16

  256. ID : 18

  257. Format : UTF-8

  258. Codec ID : S_TEXT/UTF8

  259. Codec ID/Info : UTF-8 Plain Text

  260. Duration : 2 h 54 min

  261. Bit rate : 44 b/s

  262. Count of elements : 1903

  263. Stream size : 57.1 KiB (0%)

  264. Language : Portuguese

  265. Default : No

  266. Forced : No

  267. Text #17

  268. ID : 19

  269. Format : UTF-8

  270. Codec ID : S_TEXT/UTF8

  271. Codec ID/Info : UTF-8 Plain Text

  272. Duration : 2 h 54 min

  273. Bit rate : 44 b/s

  274. Count of elements : 1778

  275. Stream size : 56.5 KiB (0%)

  276. Language : Romanian

  277. Default : No

  278. Forced : No

  279. Text #18

  280. ID : 20

  281. Format : UTF-8

  282. Codec ID : S_TEXT/UTF8

  283. Codec ID/Info : UTF-8 Plain Text

  284. Duration : 2 h 54 min

  285. Bit rate : 36 b/s

  286. Count of elements : 1856

  287. Stream size : 46.4 KiB (0%)

  288. Language : Slovak

  289. Default : No

  290. Forced : No

  291. Text #19

  292. ID : 21

  293. Format : UTF-8

  294. Codec ID : S_TEXT/UTF8

  295. Codec ID/Info : UTF-8 Plain Text

  296. Duration : 2 h 54 min

  297. Bit rate : 36 b/s

  298. Count of elements : 1613

  299. Stream size : 47.0 KiB (0%)

  300. Title : Slovenia

  301. Language : Slovenian

  302. Default : No

  303. Forced : No

  304. Text #20

  305. ID : 22

  306. Format : UTF-8

  307. Codec ID : S_TEXT/UTF8

  308. Codec ID/Info : UTF-8 Plain Text

  309. Duration : 2 h 55 min

  310. Bit rate : 36 b/s

  311. Count of elements : 1912

  312. Stream size : 46.7 KiB (0%)

  313. Title : Latin, Serbia

  314. Language : Serbian

  315. Default : No

  316. Forced : No

  317. Text #21

  318. ID : 23

  319. Format : UTF-8

  320. Codec ID : S_TEXT/UTF8

  321. Codec ID/Info : UTF-8 Plain Text

  322. Duration : 2 h 54 min

  323. Bit rate : 38 b/s

  324. Count of elements : 1400

  325. Stream size : 48.9 KiB (0%)

  326. Title : Sweden

  327. Language : Swedish

  328. Default : No

  329. Forced : No

  330. Text #22

  331. ID : 24

  332. Format : UTF-8

  333. Codec ID : S_TEXT/UTF8

  334. Codec ID/Info : UTF-8 Plain Text

  335. Duration : 2 h 55 min

  336. Bit rate : 96 b/s

  337. Count of elements : 1973

  338. Stream size : 124 KiB (0%)

  339. Title : (English & Chinese)

  340. Language : Chinese

  341. Default : Yes

  342. Forced : No


复制代码



文件下载


除非特别注明,本文『新蝙蝠侠[内封院线中文字幕调成双语].The.Batman.2022.2160p.HMAX.WEB-DL.DDP.5.1.Atmos.HDR.H.265-CTRLWEB 23.06GB』来源于互联网机器人自动抓取,非本站原创。 浮游电影网不对本文拥有版权,如有侵犯,请联系邮箱:fuyouu#yandex.com[#换成@]投诉。我们会在15个工作日内删除。 但烦请转载时请标明出处:“本文转载于『浮游电影网』,原文地址:https://www.fuyouu.com/21458.html

评论吧骚年!

发表你的见解   

昵称*

E-mail*(建议输入,以便收到博主回复的提示邮件)

验证码*

您可以使用eMule或eMule Mod(Windows)、aMule(Win、Linux、Mac)等软件下载eD2k链接。。
eMule收藏集(.emulecollection)文件是您选中的所有链接的列表文件。eMule可以直接下载它们。
按住SHIFT键选择可以选中多个选择框。
可用文件名和大小选择器来选择文件。
文件名选择器帮您根据文件名称或后缀来选择文件。不分大小写。
符号使用:
和:空格( )、+
不包含:-
或:|
转义:一对英文引号("");
匹配开头:^
匹配结尾:$
例如:
选中所有名称中包含有“eMule”或“0.49c”字眼,但不包含有“exe”字眼的:emule|0.49c -exe
选中所有名称的开头是“eMule”,结尾是“0.49c”的:^emule 0.49c$
选中所有名称中带有“eMule 0.49c”的(必须是“eMule 0.49c”,中间没有别的字符,不能是“eMule fake 0.49c”),需要转义:"emule 0.49c"
大小选择器帮您根据文件大小选择文件。