当前位置: 首页 >> 欧美电影 >> 卡萨布兰卡[中文字幕].Casablanca.1942.REMASTERED.1080p.BluRay.REMUX.AVC.DTS-HD.MA.1.0-FGT 20.38GB >> 正文

卡萨布兰卡[中文字幕].Casablanca.1942.REMASTERED.1080p.BluRay.REMUX.AVC.DTS-HD.MA.1.0-FGT 20.38GB

2022年04月19日 12:44:37     电影发布:来源于网络     电影分类:欧美电影     评论(0)    

卡萨布兰卡[中文字幕].Casablanca.1942.REMASTERED.1080p.BluRay.REMUX.AVC.DTS HD.MA.1.0 FGT 20.38GB  欧美电影  第1张

◎译 名 卡萨布兰卡 / 北非谍影(港 / 台)

◎片 名 Casablanca

◎年 代 1942

◎产 地 美国

◎类 别 剧情 / 爱情 / 战争

◎语 言 英语 / 法语 / 德语 / 意大利语

◎上映日期 1943-07-07(中国大陆) / 1942-11-26(纽约首映) / 1943-01-23(美国)

◎IMDb链接 https://www.imdb.com/title/tt0034583/

◎豆瓣评分 8.7/10 (204049人评价)

◎豆瓣链接 https://movie.douban.com/subject/1296753/

◎片 长 102分钟

◎导 演 迈克尔·柯蒂兹 Michael Curtiz (id:1016700)

◎编 剧 朱利叶斯·J·爱泼斯坦 Julius J. Epstein (id:1025449)

菲利普·G·爱泼斯坦 Philip G. Epstein (id:1023433)

霍华德·科克 Howard Koch (id:1037541)

默里·伯内特 Murray Burnett (id:1015305)

凯西·罗宾逊 Casey Robinson (id:1028901)

◎演 员 亨弗莱·鲍嘉 Humphrey Bogart (id:1047982)

英格丽·褒曼 Ingrid Bergman (id:1049566)

保罗·亨雷德 Paul Henreid (id:1014082)

克劳德·雷恩斯 Claude Rains (id:1041209)

康拉德·韦特 Conrad Veidt (id:1007139)

西德尼·格林斯垂特 Sydney Greenstreet (id:1014174)

彼得·洛 Peter Lorre (id:1010644)

S·Z·萨卡尔 S.Z. Sakall (id:1147569)

玛德琳·勒博 Madeleine Lebeau (id:1107787)

杜利·威尔逊 Dooley Wilson (id:1168108)

乔伊·派奇 Joy Page (id:1129921)

约翰奎尔伦 John Qualen (id:1142854)

列昂尼德·金斯基 Leonid Kinskey (id:1111982)

科特·博伊斯 Curt Bois (id:1065736)

Enrique Acosta Enrique Acosta (id:1058782)

Ed Agresti Ed Agresti (id:1057623)

Louis V. Arco Louis V. Arco (id:1058130)

Brandon Beach Brandon Beach (id:1063468)

利昂·贝拉斯科 Leon Belasco (id:1065098)

Trude Berliner Trude Berliner (id:1061510)

奥利弗布莱克 Oliver Blake (id:1062460)

蒙蒂·布卢 Monte Blue (id:1054249)

欧仁·博登 Eugene Borden (id:1061346)

Dick Botiller Dick Botiller (id:1063800)

Maurice Brierre Maurice Brierre (id:1077949)

George M. Carleton George M. Carleton (id:1076994)

Spencer Chan Spencer Chan (id:1076959)

特克斯·库珀 Tex Cooper (id:1075755)

基诺科拉多 Gino Corrado (id:1074733)

弗兰科·科尔萨罗 Franco Corsaro (id:1073024)

Adrienne D'Ambricourt Adrienne D'Ambricourt (id:1076037)

马塞尔·达里奥 Marcel Dalio (id:1069005)

赫尔穆特·丹丁 Helmut Dantine (id:1028291)

Jean De Briac Jean De Briac (id:1081960)

George Dee George Dee (id:1079246)

让·德尔瓦尔 Jean Del Val (id:1083183)

Carl Deloro Carl Deloro (id:1086078)

Arthur Dulac Arthur Dulac (id:1086088)

威廉·埃德蒙兹 William Edmunds (id:1089816)

赫伯特·埃文斯 Herbert Evans (id:1088153)

Fred Farrell Fred Farrell (id:1090374)

马丁·加拉拉加 Martin Garralaga (id:1101366)

格雷戈里·盖伊 Gregory Gaye (id:1097215)

Gregory Golubeff Gregory Golubeff (id:1094835)

Ilka Grüning Ilka Grüning (id:1091144)

克莱顿·黑尔 Creighton Hale (id:1098269)

Winifred Harris Winifred Harris (id:1095571)

Jamiel Hasson Jamiel Hasson (id:1099290)

Arthur Stuart Hull Arthur Stuart Hull (id:1106714)

奥拉夫·许滕 Olaf Hytten (id:1106567)

Paul Irving Paul Irving (id:1110256)

Charles La Torre Charles La Torre (id:1109889)

乔治·J·刘易斯 George J. Lewis (id:1054319)

Jacques Lory Jacques Lory (id:1115814)

Lou Marcelle Lou Marcelle (id:1116450)

Michael Mark Michael Mark (id:1122839)

弗兰克·马佐拉 Frank Mazzola (id:1032883)

乔治·米克 George Meeker (id:1120279)

Lal Chand Mehra Lal Chand Mehra (id:1124273)

路易斯梅西埃 Louis Mercier (id:1125086)

Torben Meyer Torben Meyer (id:1124390)

Mike Morelli Mike Morelli (id:1134309)

阿尔贝托·莫林 Alberto Morin (id:1129632)

Leo Mostovoy Leo Mostovoy (id:1134648)

Barry Norton Barry Norton (id:1127820)

Monty O'Grady Monty O'Grady (id:1132002)

Lotte Palfi Andor Lotte Palfi Andor (id:1058517)

Paul Panzer Paul Panzer (id:1054341)

Manuel París Manuel París (id:1129515)

Alexander Pollard Alexander Pollard (id:1127521)

保罗·波尔卡西 Paul Porcasi (id:1132513)

弗兰克·普格利亚 Frank Puglia (id:1140916)

Georges Renavent Georges Renavent (id:1147876)

杜威·罗宾逊 Dewey Robinson (id:1142732)

Victor Romito Victor Romito (id:1144524)

Henry Rowland Henry Rowland (id:1148471)

Richard Ryen Richard Ryen (id:1146960)

丹·西摩 Dan Seymour (id:1147134)

Nick Shaid Nick Shaid (id:1142597)

Lester Sharpe Lester Sharpe (id:1147203)

Bhogwan Singh Bhogwan Singh (id:1160694)

Dina Smirnova Dina Smirnova (id:1155516)

Gerald Oliver Smith Gerald Oliver Smith (id:1148938)

George Sorel George Sorel (id:1150213)

Geoffrey Steele Geoffrey Steele (id:1159334)

路德维希·施托塞尔 Ludwig St?ssel (id:1156574)

马克思·斯坦纳 Max Steiner (id:1048318)

亚瑟·埃德森 Arthur Edeson (id:1042376)

◎简 介

二战期间,卡萨布兰卡是欧洲逃往美国的必经之地,那里鱼龙混杂,局势紧张。里克(亨佛莱?鲍嘉 Humphrey Bogart 饰)是一个神秘的商人,他在卡萨布兰卡开了一家人气很旺的夜总会,并拥有两张宝贵的通行证。一天,反纳粹人士维克多和妻子伊尔莎(英格丽?褒曼 Ingrid Bergman 饰)来到夜总会,原来他们正在逃避纳粹的追捕。碰巧的是,里克发现,伊尔莎竟然是他的旧日情人。那段爱曾经刻骨铭心,却因为一个误会而终止。而当误会消解时,伊尔莎和里克的感情还是不可避免的重燃了。里克手上的两张通行证能帮助维克多度过难关,但这样一来,伊尔莎是决定留下,还是离去,他们的爱情在政治和伦理的推波逐流中走向何方。

◎获奖情况 (共8项)

第16届奥斯卡金像奖 (1944)

最佳影片

最佳导演

└──迈克尔·柯蒂兹 (id:1016700)

最佳男主角(提名)

└──亨弗莱·鲍嘉 (id:1047982)

最佳男配角(提名)

└──克劳德·雷恩斯 (id:1041209)

最佳编剧

黑白片最佳摄影(提名)

└──亚瑟·埃德森 (id:1042376)

最佳剪辑(提名)

└──欧文·马克斯 (id:1025825)

剧情/喜剧片最佳配乐(提名)

└──马克思·斯坦纳 (id:1048318)

  1. Video

  2. ID : 1

  3. ID in the original source medium : 4113 (0x1011)

  4. Format : AVC

  5. Format/Info : Advanced Video Codec

  6. Format profile : [email protected]

  7. Format settings : CABAC / 2 Ref Frames

  8. Format settings, CABAC : Yes

  9. Format settings, Reference frames : 2 frames

  10. Format settings, GOP : M=1, N=10

  11. Codec ID : V_MPEG4/ISO/AVC

  12. Duration : 1 h 42 min

  13. Bit rate mode : Variable

  14. Bit rate : 25.9 Mb/s

  15. Width : 1 920 pixels

  16. Height : 1 080 pixels

  17. Display aspect ratio : 16:9

  18. Frame rate mode : Constant

  19. Frame rate : 23.976 (24000/1001/53354) FPS

  20. Color space : YUV

  21. Chroma subsampling : 4:2:0

  22. Bit depth : 8 bits

  23. Scan type : Progressive

  24. Bits/(Pixel*Frame) : 0.521

  25. Stream size : 18.6 GiB (91%)

  26. Language : English

  27. Default : No

  28. Forced : No

  29. Original source medium : Blu-ray


  30. Audio #1

  31. ID : 2

  32. ID in the original source medium : 4352 (0x1100)

  33. Format : DTS XLL

  34. Format/Info : Digital Theater Systems

  35. Commercial name : DTS-HD Master Audio

  36. Codec ID : A_DTS

  37. Duration : 1 h 42 min

  38. Bit rate mode : Variable

  39. Bit rate : 894 kb/s

  40. Channel(s) : 1 channel

  41. Channel layout : C

  42. Sampling rate : 48.0 kHz

  43. Frame rate : 93.750 FPS (512 SPF)

  44. Bit depth : 24 bits

  45. Compression mode : Lossless

  46. Stream size : 656 MiB (3%)

  47. Title : DTS-HD MA 1.0

  48. Language : English

  49. Default : Yes

  50. Forced : No

  51. Original source medium : Blu-ray


  52. Audio #2

  53. ID : 3

  54. ID in the original source medium : 4353 (0x1101)

  55. Format : AC-3

  56. Format/Info : Audio Coding 3

  57. Commercial name : Dolby Digital

  58. Codec ID : A_AC3

  59. Duration : 1 h 42 min

  60. Bit rate mode : Constant

  61. Bit rate : 192 kb/s

  62. Channel(s) : 1 channel

  63. Channel layout : C

  64. Sampling rate : 48.0 kHz

  65. Frame rate : 31.250 FPS (1536 SPF)

  66. Compression mode : Lossy

  67. Stream size : 141 MiB (1%)

  68. Title : DD 1.0

  69. Language : French

  70. Service kind : Complete Main

  71. Default : No

  72. Forced : No

  73. Original source medium : Blu-ray


  74. Audio #3

  75. ID : 4

  76. ID in the original source medium : 4354 (0x1102)

  77. Format : AC-3

  78. Format/Info : Audio Coding 3

  79. Commercial name : Dolby Digital

  80. Codec ID : A_AC3

  81. Duration : 1 h 42 min

  82. Bit rate mode : Constant

  83. Bit rate : 192 kb/s

  84. Channel(s) : 1 channel

  85. Channel layout : C

  86. Sampling rate : 48.0 kHz

  87. Frame rate : 31.250 FPS (1536 SPF)

  88. Compression mode : Lossy

  89. Stream size : 141 MiB (1%)

  90. Title : DD 1.0

  91. Language : Italian

  92. Service kind : Complete Main

  93. Default : No

  94. Forced : No

  95. Original source medium : Blu-ray


  96. Audio #4

  97. ID : 5

  98. ID in the original source medium : 4355 (0x1103)

  99. Format : AC-3

  100. Format/Info : Audio Coding 3

  101. Commercial name : Dolby Digital

  102. Codec ID : A_AC3

  103. Duration : 1 h 42 min

  104. Bit rate mode : Constant

  105. Bit rate : 192 kb/s

  106. Channel(s) : 1 channel

  107. Channel layout : C

  108. Sampling rate : 48.0 kHz

  109. Frame rate : 31.250 FPS (1536 SPF)

  110. Compression mode : Lossy

  111. Stream size : 141 MiB (1%)

  112. Title : DD 1.0

  113. Language : Spanish

  114. Service kind : Complete Main

  115. Default : No

  116. Forced : No

  117. Original source medium : Blu-ray


  118. Audio #5

  119. ID : 6

  120. ID in the original source medium : 4356 (0x1104)

  121. Format : AC-3

  122. Format/Info : Audio Coding 3

  123. Commercial name : Dolby Digital

  124. Codec ID : A_AC3

  125. Duration : 1 h 42 min

  126. Bit rate mode : Constant

  127. Bit rate : 192 kb/s

  128. Channel(s) : 1 channel

  129. Channel layout : C

  130. Sampling rate : 48.0 kHz

  131. Frame rate : 31.250 FPS (1536 SPF)

  132. Compression mode : Lossy

  133. Stream size : 141 MiB (1%)

  134. Title : DD 1.0

  135. Language : Spanish

  136. Service kind : Complete Main

  137. Default : No

  138. Forced : No

  139. Original source medium : Blu-ray


  140. Audio #6

  141. ID : 7

  142. ID in the original source medium : 4357 (0x1105)

  143. Format : AC-3

  144. Format/Info : Audio Coding 3

  145. Commercial name : Dolby Digital

  146. Codec ID : A_AC3

  147. Duration : 1 h 42 min

  148. Bit rate mode : Constant

  149. Bit rate : 192 kb/s

  150. Channel(s) : 1 channel

  151. Channel layout : C

  152. Sampling rate : 48.0 kHz

  153. Frame rate : 31.250 FPS (1536 SPF)

  154. Compression mode : Lossy

  155. Stream size : 141 MiB (1%)

  156. Title : DD 1.0

  157. Language : Portuguese

  158. Service kind : Complete Main

  159. Default : No

  160. Forced : No

  161. Original source medium : Blu-ray


  162. Audio #7

  163. ID : 8

  164. ID in the original source medium : 4359 (0x1107)

  165. Format : AC-3

  166. Format/Info : Audio Coding 3

  167. Commercial name : Dolby Digital

  168. Codec ID : A_AC3

  169. Duration : 1 h 42 min

  170. Bit rate mode : Constant

  171. Bit rate : 192 kb/s

  172. Channel(s) : 1 channel

  173. Channel layout : C

  174. Sampling rate : 48.0 kHz

  175. Frame rate : 31.250 FPS (1536 SPF)

  176. Compression mode : Lossy

  177. Stream size : 141 MiB (1%)

  178. Title : DD 1.0

  179. Language : English

  180. Service kind : Complete Main

  181. Default : No

  182. Forced : No

  183. Original source medium : Blu-ray


  184. Audio #8

  185. ID : 9

  186. ID in the original source medium : 4360 (0x1108)

  187. Format : AC-3

  188. Format/Info : Audio Coding 3

  189. Commercial name : Dolby Digital

  190. Codec ID : A_AC3

  191. Duration : 1 h 42 min

  192. Bit rate mode : Constant

  193. Bit rate : 192 kb/s

  194. Channel(s) : 1 channel

  195. Channel layout : C

  196. Sampling rate : 48.0 kHz

  197. Frame rate : 31.250 FPS (1536 SPF)

  198. Compression mode : Lossy

  199. Stream size : 141 MiB (1%)

  200. Title : DD 1.0

  201. Language : English

  202. Service kind : Complete Main

  203. Default : No

  204. Forced : No

  205. Original source medium : Blu-ray


  206. Text #1

  207. ID : 10

  208. Format : UTF-8

  209. Codec ID : S_TEXT/UTF8

  210. Codec ID/Info : UTF-8 Plain Text

  211. Duration : 1 h 41 min

  212. Bit rate : 85 b/s

  213. Count of elements : 1534

  214. Stream size : 63.2 KiB (0%)

  215. Language : English

  216. Default : Yes

  217. Forced : No


  218. Text #2

  219. ID : 11

  220. Format : UTF-8

  221. Codec ID : S_TEXT/UTF8

  222. Codec ID/Info : UTF-8 Plain Text

  223. Duration : 1 h 41 min

  224. Bit rate : 86 b/s

  225. Count of elements : 1595

  226. Stream size : 64.4 KiB (0%)

  227. Title : SDH

  228. Language : English

  229. Default : No

  230. Forced : No


  231. Text #3

  232. ID : 12

  233. ID in the original source medium : 4609 (0x1201)

  234. Format : PGS

  235. Muxing mode : zlib

  236. Codec ID : S_HDMV/PGS

  237. Codec ID/Info : Picture based subtitle format used on BDs/HD-DVDs

  238. Duration : 1 h 41 min

  239. Bit rate : 46.7 kb/s

  240. Count of elements : 3232

  241. Stream size : 33.8 MiB (0%)

  242. Language : English

  243. Default : No

  244. Forced : No

  245. Original source medium : Blu-ray


  246. Text #4

  247. ID : 13

  248. ID in the original source medium : 4610 (0x1202)

  249. Format : PGS

  250. Muxing mode : zlib

  251. Codec ID : S_HDMV/PGS

  252. Codec ID/Info : Picture based subtitle format used on BDs/HD-DVDs

  253. Duration : 1 h 41 min

  254. Bit rate : 35.6 kb/s

  255. Count of elements : 2902

  256. Stream size : 25.8 MiB (0%)

  257. Language : French

  258. Default : No

  259. Forced : No

  260. Original source medium : Blu-ray


  261. Text #5

  262. ID : 14

  263. ID in the original source medium : 4611 (0x1203)

  264. Format : PGS

  265. Muxing mode : zlib

  266. Codec ID : S_HDMV/PGS

  267. Codec ID/Info : Picture based subtitle format used on BDs/HD-DVDs

  268. Duration : 1 h 41 min

  269. Bit rate : 40.9 kb/s

  270. Count of elements : 3098

  271. Stream size : 29.7 MiB (0%)

  272. Language : Italian

  273. Default : No

  274. Forced : No

  275. Original source medium : Blu-ray


  276. Text #6

  277. ID : 15

  278. ID in the original source medium : 4612 (0x1204)

  279. Format : PGS

  280. Muxing mode : zlib

  281. Codec ID : S_HDMV/PGS

  282. Codec ID/Info : Picture based subtitle format used on BDs/HD-DVDs

  283. Duration : 1 h 41 min

  284. Bit rate : 35.7 kb/s

  285. Count of elements : 2998

  286. Stream size : 25.9 MiB (0%)

  287. Language : Spanish

  288. Default : No

  289. Forced : No

  290. Original source medium : Blu-ray


  291. Text #7

  292. ID : 16

  293. ID in the original source medium : 4613 (0x1205)

  294. Format : PGS

  295. Muxing mode : zlib

  296. Codec ID : S_HDMV/PGS

  297. Codec ID/Info : Picture based subtitle format used on BDs/HD-DVDs

  298. Duration : 1 h 41 min

  299. Bit rate : 31.8 kb/s

  300. Count of elements : 2966

  301. Stream size : 23.1 MiB (0%)

  302. Language : Spanish

  303. Default : No

  304. Forced : No

  305. Original source medium : Blu-ray


  306. Text #8

  307. ID : 17

  308. ID in the original source medium : 4614 (0x1206)

  309. Format : PGS

  310. Muxing mode : zlib

  311. Codec ID : S_HDMV/PGS

  312. Codec ID/Info : Picture based subtitle format used on BDs/HD-DVDs

  313. Duration : 1 h 41 min

  314. Bit rate : 38.8 kb/s

  315. Count of elements : 2400

  316. Stream size : 28.1 MiB (0%)

  317. Language : Portuguese

  318. Default : No

  319. Forced : No

  320. Original source medium : Blu-ray


  321. Text #9

  322. ID : 18

  323. ID in the original source medium : 4615 (0x1207)

  324. Format : PGS

  325. Muxing mode : zlib

  326. Codec ID : S_HDMV/PGS

  327. Codec ID/Info : Picture based subtitle format used on BDs/HD-DVDs

  328. Duration : 1 h 41 min

  329. Bit rate : 30.1 kb/s

  330. Count of elements : 1870

  331. Stream size : 21.8 MiB (0%)

  332. Language : Danish

  333. Default : No

  334. Forced : No

  335. Original source medium : Blu-ray


  336. Text #10

  337. ID : 19

  338. ID in the original source medium : 4616 (0x1208)

  339. Format : PGS

  340. Muxing mode : zlib

  341. Codec ID : S_HDMV/PGS

  342. Codec ID/Info : Picture based subtitle format used on BDs/HD-DVDs

  343. Duration : 1 h 41 min

  344. Bit rate : 32.1 kb/s

  345. Count of elements : 2016

  346. Stream size : 23.3 MiB (0%)

  347. Language : Finnish

  348. Default : No

  349. Forced : No

  350. Original source medium : Blu-ray


  351. Text #11

  352. ID : 20

  353. ID in the original source medium : 4617 (0x1209)

  354. Format : PGS

  355. Muxing mode : zlib

  356. Codec ID : S_HDMV/PGS

  357. Codec ID/Info : Picture based subtitle format used on BDs/HD-DVDs

  358. Duration : 1 h 41 min

  359. Bit rate : 24.8 kb/s

  360. Count of elements : 1606

  361. Stream size : 18.0 MiB (0%)

  362. Language : Norwegian

  363. Default : No

  364. Forced : No

  365. Original source medium : Blu-ray


  366. Text #12

  367. ID : 21

  368. ID in the original source medium : 4618 (0x120A)

  369. Format : PGS

  370. Muxing mode : zlib

  371. Codec ID : S_HDMV/PGS

  372. Codec ID/Info : Picture based subtitle format used on BDs/HD-DVDs

  373. Duration : 1 h 41 min

  374. Bit rate : 23.6 kb/s

  375. Count of elements : 1600

  376. Stream size : 17.1 MiB (0%)

  377. Language : Swedish

  378. Default : No

  379. Forced : No

  380. Original source medium : Blu-ray


  381. Text #13

  382. ID : 22

  383. ID in the original source medium : 4622 (0x120E)

  384. Format : PGS

  385. Muxing mode : zlib

  386. Codec ID : S_HDMV/PGS

  387. Codec ID/Info : Picture based subtitle format used on BDs/HD-DVDs

  388. Duration : 1 h 41 min

  389. Bit rate : 42.0 kb/s

  390. Count of elements : 2951

  391. Stream size : 30.6 MiB (0%)

  392. Language : Chinese

  393. Default : No

  394. Forced : No

  395. Original source medium : Blu-ray


  396. Text #14

  397. ID : 23

  398. ID in the original source medium : 4623 (0x120F)

  399. Format : PGS

  400. Muxing mode : zlib

  401. Codec ID : S_HDMV/PGS

  402. Codec ID/Info : Picture based subtitle format used on BDs/HD-DVDs

  403. Duration : 1 h 41 min

  404. Bit rate : 43.4 kb/s

  405. Count of elements : 2951

  406. Stream size : 31.6 MiB (0%)

  407. Language : Chinese

  408. Default : No

  409. Forced : No

  410. Original source medium : Blu-ray


  411. Text #15

  412. ID : 24

  413. ID in the original source medium : 4624 (0x1210)

  414. Format : PGS

  415. Muxing mode : zlib

  416. Codec ID : S_HDMV/PGS

  417. Codec ID/Info : Picture based subtitle format used on BDs/HD-DVDs

  418. Duration : 1 h 41 min

  419. Bit rate : 70.6 kb/s

  420. Count of elements : 2951

  421. Stream size : 51.5 MiB (0%)

  422. Language : Chinese

  423. Default : No

  424. Forced : No

  425. Original source medium : Blu-ray


  426. Text #16

  427. ID : 25

  428. ID in the original source medium : 4625 (0x1211)

  429. Format : PGS

  430. Muxing mode : zlib

  431. Codec ID : S_HDMV/PGS

  432. Codec ID/Info : Picture based subtitle format used on BDs/HD-DVDs

  433. Duration : 1 h 41 min

  434. Bit rate : 71.9 kb/s

  435. Count of elements : 2951

  436. Stream size : 52.4 MiB (0%)

  437. Language : Chinese

  438. Default : No

  439. Forced : No

  440. Original source medium : Blu-ray


  441. Menu

  442. 00:00:00.000 : en:Chapter 01

  443. 00:02:24.060 : en:Chapter 02

  444. 00:06:30.640 : en:Chapter 03

  445. 00:08:52.156 : en:Chapter 04

  446. 00:12:43.429 : en:Chapter 05

  447. 00:13:56.585 : en:Chapter 06

  448. 00:17:20.789 : en:Chapter 07

  449. 00:20:40.989 : en:Chapter 08

  450. 00:22:52.788 : en:Chapter 09

  451. 00:25:20.101 : en:Chapter 10

  452. 00:29:00.238 : en:Chapter 11

  453. 00:31:16.624 : en:Chapter 12

  454. 00:33:43.604 : en:Chapter 13

  455. 00:36:08.708 : en:Chapter 14

  456. 00:38:51.120 : en:Chapter 15

  457. 00:42:19.161 : en:Chapter 16

  458. 00:48:00.043 : en:Chapter 17

  459. 00:50:59.765 : en:Chapter 18

  460. 00:54:41.152 : en:Chapter 19

  461. 00:58:33.176 : en:Chapter 20

  462. 01:01:13.002 : en:Chapter 21

  463. 01:04:45.298 : en:Chapter 22

  464. 01:07:16.574 : en:Chapter 23

  465. 01:10:08.412 : en:Chapter 24

  466. 01:15:22.351 : en:Chapter 25

  467. 01:18:30.831 : en:Chapter 26

  468. 01:21:24.963 : en:Chapter 27

  469. 01:25:36.381 : en:Chapter 28

  470. 01:28:52.577 : en:Chapter 29

  471. 01:32:11.651 : en:Chapter 30

  472. 01:35:25.636 : en:Chapter 31

  473. 01:39:27.252 : en:Chapter 32

复制代码

卡萨布兰卡[中文字幕].Casablanca.1942.REMASTERED.1080p.BluRay.REMUX.AVC.DTS HD.MA.1.0 FGT 20.38GB  欧美电影  第2张 卡萨布兰卡[中文字幕].Casablanca.1942.REMASTERED.1080p.BluRay.REMUX.AVC.DTS HD.MA.1.0 FGT 20.38GB  欧美电影  第3张 卡萨布兰卡[中文字幕].Casablanca.1942.REMASTERED.1080p.BluRay.REMUX.AVC.DTS HD.MA.1.0 FGT 20.38GB  欧美电影  第4张



文件下载


除非特别注明,本文『卡萨布兰卡[中文字幕].Casablanca.1942.REMASTERED.1080p.BluRay.REMUX.AVC.DTS-HD.MA.1.0-FGT 20.38GB』来源于互联网机器人自动抓取,非本站原创。 浮游电影网不对本文拥有版权,如有侵犯,请联系邮箱:fuyouu#yandex.com[#换成@]投诉。我们会在15个工作日内删除。 但烦请转载时请标明出处:“本文转载于『浮游电影网』,原文地址:https://www.fuyouu.com/21444.html

评论吧骚年!

发表你的见解   

昵称*

E-mail*(建议输入,以便收到博主回复的提示邮件)

验证码*

您可以使用eMule或eMule Mod(Windows)、aMule(Win、Linux、Mac)等软件下载eD2k链接。。
eMule收藏集(.emulecollection)文件是您选中的所有链接的列表文件。eMule可以直接下载它们。
按住SHIFT键选择可以选中多个选择框。
可用文件名和大小选择器来选择文件。
文件名选择器帮您根据文件名称或后缀来选择文件。不分大小写。
符号使用:
和:空格( )、+
不包含:-
或:|
转义:一对英文引号("");
匹配开头:^
匹配结尾:$
例如:
选中所有名称中包含有“eMule”或“0.49c”字眼,但不包含有“exe”字眼的:emule|0.49c -exe
选中所有名称的开头是“eMule”,结尾是“0.49c”的:^emule 0.49c$
选中所有名称中带有“eMule 0.49c”的(必须是“eMule 0.49c”,中间没有别的字符,不能是“eMule fake 0.49c”),需要转义:"emule 0.49c"
大小选择器帮您根据文件大小选择文件。