当前位置: 首页 >> 欧美电影 >> 绿里奇迹[中文字幕].The.Green.Mile.1999.1080p.BluRay.REMUX.AVC.DTS-HD.MA.TrueHD.7.1.Atmos-FGT 52.27GB >> 正文

绿里奇迹[中文字幕].The.Green.Mile.1999.1080p.BluRay.REMUX.AVC.DTS-HD.MA.TrueHD.7.1.Atmos-FGT 52.27GB

2022年04月19日 12:31:18     电影发布:来源于网络     电影分类:欧美电影     评论(0)    

绿里奇迹[中文字幕].The.Green.Mile.1999.1080p.BluRay.REMUX.AVC.DTS HD.MA.TrueHD.7.1.Atmos FGT 52.27GB  欧美电影  第1张

◎译 名 绿里奇迹 / 绿色奇迹(台) / 绿色英里 / 绿里 / 绿地

◎片 名 The Green Mile

◎年 代 1999

◎产 地 美国

◎类 别 剧情 / 悬疑 / 犯罪 / 奇幻

◎语 言 英语 / 法语

◎上映日期 1999-12-10(美国)

◎IMDb链接 https://www.imdb.com/title/tt0120689/

◎豆瓣评分 8.9/10 (285684人评价)

◎豆瓣链接 https://movie.douban.com/subject/1300374/

◎片 长 189 分钟

◎导 演 弗兰克·德拉邦特 Frank Darabont (id:1047973)

◎编 剧 弗兰克·德拉邦特 Frank Darabont (id:1047973)

斯蒂芬·金 Stephen King (id:1049547)

◎演 员 汤姆·汉克斯 Tom Hanks (id:1054450)

大卫·摩斯 David Morse (id:1027810)

迈克·克拉克·邓肯 Michael Clarke Duncan (id:1036346)

邦尼·亨特 Bonnie Hunt (id:1049523)

詹姆斯·克伦威尔 James Cromwell (id:1006992)

迈克尔·杰特 Michael Jeter (id:1049692)

格雷厄姆·格林 Graham Greene (id:1056126)

道格·休切逊 Doug Hutchison (id:1018015)

山姆·洛克威尔 Sam Rockwell (id:1047972)

巴里·佩珀 Barry Pepper (id:1000075)

杰弗里·德曼 Jeffrey DeMunn (id:1087302)

派翠西娅·克拉克森 Patricia Clarkson (id:1013791)

哈利·戴恩·斯坦通 Harry Dean Stanton (id:1010582)

戴布思·格里尔 Dabbs Greer (id:1093941)

伊芙·布伦特 Eve Brent (id:1279260)

布赖恩·利比 Brian Libby (id:1343305)

葆拉·马尔科姆森 Paula Malcomson (id:1332256)

Toy Spears Toy Spears (id:1206233)

加里·西尼斯 Gary Sinise (id:1031848)

布兰特·布里斯科 Brent Briscoe (id:1019143)

Tim Smith Tim Smith (id:1011837)

范·埃佩尔森 Van Epperson (id:1089914)

Robert Malone Robert Malone (id:1183789)

泰德·霍利斯 Ted Hollis (id:1172109)

Edrie Warner Edrie Warner (id:1161381)

Todd Thompson Todd Thompson (id:1157758)

莱·塔斯科 Rai Tasco (id:1156287)

Garth Shaw Garth Shaw (id:1148444)

比尔·麦金尼 Bill McKinney (id:1115045)

史考蒂·莱文沃斯 Scotty Leavenworth (id:1111032)

加里·英霍夫 Gary Imhoff (id:1110955)

Dono Langley Dono Langley (id:1109395)

Christopher Joel Ives Christopher Joel Ives (id:1103493)

菲尔霍恩 Phil Hawn (id:1101562)

威廉姆·赛德勒 William Sadler (id:1000095)

弗兰克·德拉邦特 Frank Darabont (id:1047973)

大卫·瓦尔德 David Valdes (id:1299783)

托马斯·纽曼 Thomas Newman (id:1027939)

David Tattersall David Tattersall (id:1276576)

理查德·弗朗西斯-布鲁斯 Richard Francis-Bruce (id:1037415)

马里·芬恩 Mali Finn (id:1080809)

泰伦斯·马什 Terence Marsh (id:1042324)

迈克尔·塞尔顿 Michael Seirton (id:1297161)

洛伊斯·布尔维尔 Lois Burwell (id:1276653)

霍华德·伯杰 Howard Berger (id:1278442)

格里高利·尼克特洛 Gregory Nicotero (id:1128804)

Janis Clark Janis Clark (id:1280850)

Katherine Rees Katherine Rees (id:1295382)

小约翰·M·艾略特 John M. Elliott Jr. (id:1283124)

黛博拉·拉·米亚·德内弗 Deborah La Mia Denaver (id:1282236)

Alan Tuskes Alan Tuskes (id:1012895)

Nina Paskowitz Nina Paskowitz (id:1294045)

丹尼尔C.斯瑞派克 Daniel C. Striepeke (id:1028832)

罗伯特库兹曼 Robert Kurtzman (id:1036962)

Jules Kovisars Jules Kovisars (id:1288941)

查尔斯·吉布森 Charles Gibson (id:1276261)

查尔斯·吉布森 Charles Gibson (id:1276261)

贝丝·达马托 Beth D'Amato (id:1281675)

克莱格·巴朗 Craig Barron (id:1277981)

David Latour David Latour (id:1106428)

Rick O'Connor Rick O'Connor (id:1197908)

Bob Powell Bob Powell (id:1043386)

潘国瑜 Ellen Poon (id:1294718)

克里斯托弗·埃文斯 Christopher Evans (id:1283336)

Stephanie Hornish Stephanie Hornish (id:1286927)

Lawrence Littleton Lawrence Littleton (id:1290161)

比尔·克罗耶尔 Bill Kroyer (id:1289058)

托马斯·罗塞特 Thomas Rosseter (id:1296146)

Nancy Kato Nancy Kato (id:1288184)

布雷特·诺特卡特 Brett Northcutt (id:1293296)

John Dietz John Dietz (id:1001647)

布兰登·克雷格 Brandon Craig (id:1017538)

Royce Hager Royce Hager (id:1178460)

David Sosalla David Sosalla (id:1298080)

肯尼斯·史密斯 Kenneth Smith (id:1297900)

David Weitzberg David Weitzberg (id:1300652)

◎简 介

狱监保罗(汤姆?汉克斯 Tom Hanks 饰)这天迎来了一位不平凡的杀人犯――约翰?考夫利(迈克?克拉克?邓肯 Michael Clarke Duncan 饰)。约翰因杀了两名幼女被判死刑来到了这座著名的冷山监狱,监狱里有一片称为“绿里”的绿地,绿地那头就是刑场。

约翰不仅不像想象中的凶残,相反,他出奇的温厚、机智。约翰的到来给狱中的各人带来了天翻地覆的变化:为老囚犯特里沃的小老鼠注入了生命的强度,给特里沃最后的人生带来最后的慰籍;神奇的拯救了被病痛折磨的保罗和马琳达;将金保斯从死神手中拉了回来……保罗这些天也从约翰身上看到了人生的真谛。

约翰行刑的那天终于到了。

◎获奖情况 (共6项)

第72届奥斯卡金像奖 (2000)

最佳影片(提名)

最佳男配角(提名)

└──迈克·克拉克·邓肯 (id:1036346)

最佳改编剧本(提名)

└──弗兰克·德拉邦特 (id:1047973)

最佳音响(提名)

第57届金球奖 (2000)

电影类 最佳男配角(提名)

└──迈克·克拉克·邓肯 (id:1036346)

第24届日本电影学院奖 (2001)

最佳外语片(提名)

  1. Video

  2. ID : 1

  3. ID in the original source medium : 4113 (0x1011)

  4. Format : AVC

  5. Format/Info : Advanced Video Codec

  6. Format profile : [email protected]

  7. Format settings : CABAC / 4 Ref Frames

  8. Format settings, CABAC : Yes

  9. Format settings, Reference frames : 4 frames

  10. Codec ID : V_MPEG4/ISO/AVC

  11. Duration : 3 h 8 min

  12. Bit rate mode : Variable

  13. Bit rate : 27.6 Mb/s

  14. Maximum bit rate : 35.0 Mb/s

  15. Width : 1 920 pixels

  16. Height : 1 080 pixels

  17. Display aspect ratio : 16:9

  18. Frame rate mode : Constant

  19. Frame rate : 23.976 (24000/1001/53354) FPS

  20. Color space : YUV

  21. Chroma subsampling : 4:2:0

  22. Bit depth : 8 bits

  23. Scan type : Progressive

  24. Bits/(Pixel*Frame) : 0.556

  25. Stream size : 36.4 GiB (70%)

  26. Language : English

  27. Default : No

  28. Forced : No

  29. Original source medium : Blu-ray


  30. Audio #1

  31. ID : 2

  32. ID in the original source medium : 4352 (0x1100)

  33. Format : MLP FBA 16-ch

  34. Format/Info : Meridian Lossless Packing FBA with 16-channel presentation

  35. Commercial name : Dolby TrueHD with Dolby Atmos

  36. Codec ID : A_TRUEHD

  37. Duration : 3 h 8 min

  38. Bit rate mode : Variable

  39. Bit rate : 3 151 kb/s

  40. Maximum bit rate : 5 436 kb/s

  41. Channel(s) : 8 channels

  42. Channel layout : L R C LFE Ls Rs Lb Rb

  43. Sampling rate : 48.0 kHz

  44. Frame rate : 1 200.000 FPS (40 SPF)

  45. Bit depth : 24 bits

  46. Compression mode : Lossless

  47. Delay relative to video : 5 s 300 ms

  48. Stream size : 4.15 GiB (8%)

  49. Title : TrueHD 7.1 Atmos

  50. Language : English

  51. Default : Yes

  52. Forced : No

  53. Original source medium : Blu-ray

  54. Number of dynamic objects : 11

  55. Bed channel count : 1 channel

  56. Bed channel configuration : LFE


  57. Audio #2

  58. ID : 3

  59. Format : DTS XLL

  60. Format/Info : Digital Theater Systems

  61. Commercial name : DTS-HD Master Audio

  62. Codec ID : A_DTS

  63. Duration : 3 h 8 min

  64. Bit rate mode : Variable

  65. Bit rate : 3 852 kb/s

  66. Channel(s) : 8 channels

  67. Channel layout : C L R LFE Lb Rb Lss Rss

  68. Sampling rate : 48.0 kHz

  69. Frame rate : 93.750 FPS (512 SPF)

  70. Bit depth : 24 bits

  71. Compression mode : Lossless

  72. Delay relative to video : 5 s 300 ms

  73. Stream size : 5.07 GiB (10%)

  74. Title : DTS-HD MA 7.1

  75. Language : English

  76. Default : No

  77. Forced : No


  78. Audio #3

  79. ID : 4

  80. ID in the original source medium : 4352 (0x1100)

  81. Format : AC-3

  82. Format/Info : Audio Coding 3

  83. Commercial name : Dolby Digital

  84. Format settings : Dolby Surround EX

  85. Codec ID : A_AC3

  86. Duration : 3 h 8 min

  87. Bit rate mode : Constant

  88. Bit rate : 448 kb/s

  89. Channel(s) : 6 channels

  90. Channel layout : L R C LFE Ls Rs

  91. Sampling rate : 48.0 kHz

  92. Frame rate : 31.250 FPS (1536 SPF)

  93. Compression mode : Lossy

  94. Delay relative to video : 5 s 300 ms

  95. Stream size : 604 MiB (1%)

  96. Title : DD 5.1

  97. Language : English

  98. Service kind : Complete Main

  99. Default : No

  100. Forced : No

  101. Original source medium : Blu-ray


  102. Audio #4

  103. ID : 5

  104. ID in the original source medium : 4353 (0x1101)

  105. Format : AC-3

  106. Format/Info : Audio Coding 3

  107. Commercial name : Dolby Digital

  108. Codec ID : A_AC3

  109. Duration : 3 h 8 min

  110. Bit rate mode : Constant

  111. Bit rate : 640 kb/s

  112. Channel(s) : 6 channels

  113. Channel layout : L R C LFE Ls Rs

  114. Sampling rate : 48.0 kHz

  115. Frame rate : 31.250 FPS (1536 SPF)

  116. Compression mode : Lossy

  117. Delay relative to video : 5 s 300 ms

  118. Stream size : 863 MiB (2%)

  119. Title : DD 5.1

  120. Language : French

  121. Service kind : Complete Main

  122. Default : No

  123. Forced : No

  124. Original source medium : Blu-ray


  125. Audio #5

  126. ID : 6

  127. ID in the original source medium : 4354 (0x1102)

  128. Format : AC-3

  129. Format/Info : Audio Coding 3

  130. Commercial name : Dolby Digital

  131. Codec ID : A_AC3

  132. Duration : 3 h 8 min

  133. Bit rate mode : Constant

  134. Bit rate : 640 kb/s

  135. Channel(s) : 6 channels

  136. Channel layout : L R C LFE Ls Rs

  137. Sampling rate : 48.0 kHz

  138. Frame rate : 31.250 FPS (1536 SPF)

  139. Compression mode : Lossy

  140. Delay relative to video : 5 s 300 ms

  141. Stream size : 863 MiB (2%)

  142. Title : DD 5.1

  143. Language : French

  144. Service kind : Complete Main

  145. Default : No

  146. Forced : No

  147. Original source medium : Blu-ray


  148. Audio #6

  149. ID : 7

  150. ID in the original source medium : 4355 (0x1103)

  151. Format : AC-3

  152. Format/Info : Audio Coding 3

  153. Commercial name : Dolby Digital

  154. Codec ID : A_AC3

  155. Duration : 3 h 8 min

  156. Bit rate mode : Constant

  157. Bit rate : 640 kb/s

  158. Channel(s) : 6 channels

  159. Channel layout : L R C LFE Ls Rs

  160. Sampling rate : 48.0 kHz

  161. Frame rate : 31.250 FPS (1536 SPF)

  162. Compression mode : Lossy

  163. Delay relative to video : 5 s 300 ms

  164. Stream size : 863 MiB (2%)

  165. Title : DD 5.1

  166. Language : German

  167. Service kind : Complete Main

  168. Default : No

  169. Forced : No

  170. Original source medium : Blu-ray


  171. Audio #7

  172. ID : 8

  173. ID in the original source medium : 4356 (0x1104)

  174. Format : AC-3

  175. Format/Info : Audio Coding 3

  176. Commercial name : Dolby Digital

  177. Codec ID : A_AC3

  178. Duration : 3 h 8 min

  179. Bit rate mode : Constant

  180. Bit rate : 640 kb/s

  181. Channel(s) : 6 channels

  182. Channel layout : L R C LFE Ls Rs

  183. Sampling rate : 48.0 kHz

  184. Frame rate : 31.250 FPS (1536 SPF)

  185. Compression mode : Lossy

  186. Delay relative to video : 5 s 300 ms

  187. Stream size : 863 MiB (2%)

  188. Title : DD 5.1

  189. Language : Italian

  190. Service kind : Complete Main

  191. Default : No

  192. Forced : No

  193. Original source medium : Blu-ray


  194. Audio #8

  195. ID : 9

  196. ID in the original source medium : 4357 (0x1105)

  197. Format : AC-3

  198. Format/Info : Audio Coding 3

  199. Commercial name : Dolby Digital

  200. Codec ID : A_AC3

  201. Duration : 3 h 8 min

  202. Bit rate mode : Constant

  203. Bit rate : 640 kb/s

  204. Channel(s) : 6 channels

  205. Channel layout : L R C LFE Ls Rs

  206. Sampling rate : 48.0 kHz

  207. Frame rate : 31.250 FPS (1536 SPF)

  208. Compression mode : Lossy

  209. Delay relative to video : 5 s 300 ms

  210. Stream size : 863 MiB (2%)

  211. Title : DD 5.1

  212. Language : Spanish

  213. Service kind : Complete Main

  214. Default : No

  215. Forced : No

  216. Original source medium : Blu-ray


  217. Audio #9

  218. ID : 10

  219. ID in the original source medium : 4358 (0x1106)

  220. Format : AC-3

  221. Format/Info : Audio Coding 3

  222. Commercial name : Dolby Digital

  223. Format settings : Dolby Surround

  224. Codec ID : A_AC3

  225. Duration : 3 h 8 min

  226. Bit rate mode : Constant

  227. Bit rate : 192 kb/s

  228. Channel(s) : 2 channels

  229. Channel layout : L R

  230. Sampling rate : 48.0 kHz

  231. Frame rate : 31.250 FPS (1536 SPF)

  232. Compression mode : Lossy

  233. Delay relative to video : 5 s 300 ms

  234. Stream size : 259 MiB (0%)

  235. Title : DD 2.0

  236. Language : Spanish

  237. Service kind : Complete Main

  238. Default : No

  239. Forced : No

  240. Original source medium : Blu-ray


  241. Audio #10

  242. ID : 11

  243. ID in the original source medium : 4359 (0x1107)

  244. Format : AC-3

  245. Format/Info : Audio Coding 3

  246. Commercial name : Dolby Digital

  247. Format settings : Dolby Surround

  248. Codec ID : A_AC3

  249. Duration : 3 h 8 min

  250. Bit rate mode : Constant

  251. Bit rate : 192 kb/s

  252. Channel(s) : 2 channels

  253. Channel layout : L R

  254. Sampling rate : 48.0 kHz

  255. Frame rate : 31.250 FPS (1536 SPF)

  256. Compression mode : Lossy

  257. Delay relative to video : 5 s 300 ms

  258. Stream size : 259 MiB (0%)

  259. Title : DD 2.0

  260. Language : English

  261. Service kind : Complete Main

  262. Default : No

  263. Forced : No

  264. Original source medium : Blu-ray


  265. Audio #11

  266. ID : 12

  267. ID in the original source medium : 4352 (0x1100)

  268. Format : DTS

  269. Format/Info : Digital Theater Systems

  270. Codec ID : A_DTS

  271. Duration : 3 h 8 min

  272. Bit rate mode : Constant

  273. Bit rate : 768 kb/s

  274. Channel(s) : 6 channels

  275. Channel layout : C L R Ls Rs LFE

  276. Sampling rate : 48.0 kHz

  277. Frame rate : 93.750 FPS (512 SPF)

  278. Bit depth : 24 bits

  279. Compression mode : Lossy

  280. Stream size : 1.01 GiB (2%)

  281. Title : DTS 5.1

  282. Language : Japanese

  283. Default : Yes

  284. Forced : No

  285. Original source medium : Blu-ray


  286. Text #1

  287. ID : 13

  288. Format : UTF-8

  289. Codec ID : S_TEXT/UTF8

  290. Codec ID/Info : UTF-8 Plain Text

  291. Duration : 2 h 58 min

  292. Bit rate : 43 b/s

  293. Count of elements : 2058

  294. Stream size : 57.4 KiB (0%)

  295. Language : English

  296. Default : Yes

  297. Forced : No


  298. Text #2

  299. ID : 14

  300. Format : UTF-8

  301. Codec ID : S_TEXT/UTF8

  302. Codec ID/Info : UTF-8 Plain Text

  303. Duration : 2 h 59 min

  304. Bit rate : 48 b/s

  305. Count of elements : 2377

  306. Stream size : 63.0 KiB (0%)

  307. Title : SDH

  308. Language : English

  309. Default : No

  310. Forced : No


  311. Text #3

  312. ID : 15

  313. ID in the original source medium : 4609 (0x1201)

  314. Format : PGS

  315. Muxing mode : zlib

  316. Codec ID : S_HDMV/PGS

  317. Codec ID/Info : Picture based subtitle format used on BDs/HD-DVDs

  318. Duration : 2 h 59 min

  319. Bit rate : 33.4 kb/s

  320. Count of elements : 4806

  321. Stream size : 42.8 MiB (0%)

  322. Language : English

  323. Default : No

  324. Forced : No

  325. Original source medium : Blu-ray


  326. Text #4

  327. ID : 16

  328. ID in the original source medium : 4608 (0x1200)

  329. Format : PGS

  330. Muxing mode : zlib

  331. Codec ID : S_HDMV/PGS

  332. Codec ID/Info : Picture based subtitle format used on BDs/HD-DVDs

  333. Duration : 2 h 58 min

  334. Bit rate : 18.6 kb/s

  335. Count of elements : 3331

  336. Stream size : 23.7 MiB (0%)

  337. Language : Japanese

  338. Default : No

  339. Forced : No

  340. Original source medium : Blu-ray


  341. Text #5

  342. ID : 17

  343. ID in the original source medium : 4769 (0x12A1)

  344. Format : PGS

  345. Muxing mode : zlib

  346. Codec ID : S_HDMV/PGS

  347. Codec ID/Info : Picture based subtitle format used on BDs/HD-DVDs

  348. Duration : 3 h 6 min

  349. Bit rate : 22.1 kb/s

  350. Count of elements : 3550

  351. Stream size : 29.5 MiB (0%)

  352. Language : French

  353. Default : No

  354. Forced : No

  355. Original source medium : Blu-ray


  356. Text #6

  357. ID : 18

  358. ID in the original source medium : 4770 (0x12A2)

  359. Format : PGS

  360. Muxing mode : zlib

  361. Codec ID : S_HDMV/PGS

  362. Codec ID/Info : Picture based subtitle format used on BDs/HD-DVDs

  363. Duration : 2 h 59 min

  364. Bit rate : 25.4 kb/s

  365. Count of elements : 3712

  366. Stream size : 32.7 MiB (0%)

  367. Language : German

  368. Default : No

  369. Forced : No

  370. Original source medium : Blu-ray


  371. Text #7

  372. ID : 19

  373. ID in the original source medium : 4771 (0x12A3)

  374. Format : PGS

  375. Muxing mode : zlib

  376. Codec ID : S_HDMV/PGS

  377. Codec ID/Info : Picture based subtitle format used on BDs/HD-DVDs

  378. Duration : 3 h 7 min

  379. Bit rate : 23.9 kb/s

  380. Count of elements : 4006

  381. Stream size : 32.0 MiB (0%)

  382. Language : Italian

  383. Default : No

  384. Forced : No

  385. Original source medium : Blu-ray


  386. Text #8

  387. ID : 20

  388. ID in the original source medium : 4772 (0x12A4)

  389. Format : PGS

  390. Muxing mode : zlib

  391. Codec ID : S_HDMV/PGS

  392. Codec ID/Info : Picture based subtitle format used on BDs/HD-DVDs

  393. Duration : 2 h 58 min

  394. Bit rate : 22.4 kb/s

  395. Count of elements : 3696

  396. Stream size : 28.7 MiB (0%)

  397. Language : Spanish

  398. Default : No

  399. Forced : No

  400. Original source medium : Blu-ray


  401. Text #9

  402. ID : 21

  403. ID in the original source medium : 4773 (0x12A5)

  404. Format : PGS

  405. Muxing mode : zlib

  406. Codec ID : S_HDMV/PGS

  407. Codec ID/Info : Picture based subtitle format used on BDs/HD-DVDs

  408. Duration : 2 h 58 min

  409. Bit rate : 20.4 kb/s

  410. Count of elements : 2744

  411. Stream size : 26.0 MiB (0%)

  412. Language : Dutch

  413. Default : No

  414. Forced : No

  415. Original source medium : Blu-ray


  416. Text #10

  417. ID : 22

  418. ID in the original source medium : 4774 (0x12A6)

  419. Format : PGS

  420. Muxing mode : zlib

  421. Codec ID : S_HDMV/PGS

  422. Codec ID/Info : Picture based subtitle format used on BDs/HD-DVDs

  423. Duration : 3 h 1 min

  424. Bit rate : 21.2 kb/s

  425. Count of elements : 3650

  426. Stream size : 27.4 MiB (0%)

  427. Language : Chinese

  428. Default : No

  429. Forced : No

  430. Original source medium : Blu-ray


  431. Text #11

  432. ID : 23

  433. ID in the original source medium : 4775 (0x12A7)

  434. Format : PGS

  435. Muxing mode : zlib

  436. Codec ID : S_HDMV/PGS

  437. Codec ID/Info : Picture based subtitle format used on BDs/HD-DVDs

  438. Duration : 2 h 58 min

  439. Bit rate : 15.5 kb/s

  440. Count of elements : 3608

  441. Stream size : 19.9 MiB (0%)

  442. Language : Korean

  443. Default : No

  444. Forced : No

  445. Original source medium : Blu-ray


  446. Text #12

  447. ID : 24

  448. ID in the original source medium : 4776 (0x12A8)

  449. Format : PGS

  450. Muxing mode : zlib

  451. Codec ID : S_HDMV/PGS

  452. Codec ID/Info : Picture based subtitle format used on BDs/HD-DVDs

  453. Duration : 2 h 58 min

  454. Bit rate : 23.9 kb/s

  455. Count of elements : 3712

  456. Stream size : 30.6 MiB (0%)

  457. Language : Spanish

  458. Default : No

  459. Forced : No

  460. Original source medium : Blu-ray


  461. Text #13

  462. ID : 25

  463. ID in the original source medium : 4777 (0x12A9)

  464. Format : PGS

  465. Muxing mode : zlib

  466. Codec ID : S_HDMV/PGS

  467. Codec ID/Info : Picture based subtitle format used on BDs/HD-DVDs

  468. Duration : 3 h 6 min

  469. Bit rate : 19.8 kb/s

  470. Count of elements : 2596

  471. Stream size : 26.4 MiB (0%)

  472. Language : Danish

  473. Default : No

  474. Forced : No

  475. Original source medium : Blu-ray


  476. Text #14

  477. ID : 26

  478. ID in the original source medium : 4778 (0x12AA)

  479. Format : PGS

  480. Muxing mode : zlib

  481. Codec ID : S_HDMV/PGS

  482. Codec ID/Info : Picture based subtitle format used on BDs/HD-DVDs

  483. Duration : 3 h 6 min

  484. Bit rate : 19.4 kb/s

  485. Count of elements : 2404

  486. Stream size : 25.8 MiB (0%)

  487. Language : Finnish

  488. Default : No

  489. Forced : No

  490. Original source medium : Blu-ray


  491. Text #15

  492. ID : 27

  493. ID in the original source medium : 4779 (0x12AB)

  494. Format : PGS

  495. Muxing mode : zlib

  496. Codec ID : S_HDMV/PGS

  497. Codec ID/Info : Picture based subtitle format used on BDs/HD-DVDs

  498. Duration : 2 h 58 min

  499. Bit rate : 22.6 kb/s

  500. Count of elements : 3622

  501. Stream size : 28.8 MiB (0%)

  502. Language : Greek

  503. Default : No

  504. Forced : No

  505. Original source medium : Blu-ray


  506. Text #16

  507. ID : 28

  508. ID in the original source medium : 4780 (0x12AC)

  509. Format : PGS

  510. Muxing mode : zlib

  511. Codec ID : S_HDMV/PGS

  512. Codec ID/Info : Picture based subtitle format used on BDs/HD-DVDs

  513. Duration : 3 h 6 min

  514. Bit rate : 21.9 kb/s

  515. Count of elements : 3070

  516. Stream size : 29.3 MiB (0%)

  517. Language : Norwegian

  518. Default : No

  519. Forced : No

  520. Original source medium : Blu-ray


  521. Text #17

  522. ID : 29

  523. ID in the original source medium : 4781 (0x12AD)

  524. Format : PGS

  525. Muxing mode : zlib

  526. Codec ID : S_HDMV/PGS

  527. Codec ID/Info : Picture based subtitle format used on BDs/HD-DVDs

  528. Duration : 3 h 6 min

  529. Bit rate : 17.5 kb/s

  530. Count of elements : 2192

  531. Stream size : 23.4 MiB (0%)

  532. Language : Swedish

  533. Default : No

  534. Forced : No

  535. Original source medium : Blu-ray


  536. Menu

  537. 00:00:00.000 : en:Chapter 01

  538. 00:09:31.070 : en:Chapter 02

  539. 00:19:14.486 : en:Chapter 03

  540. 00:30:56.771 : en:Chapter 04

  541. 00:41:52.635 : en:Chapter 05

  542. 00:51:20.035 : en:Chapter 06

  543. 01:00:42.889 : en:Chapter 07

  544. 01:08:58.217 : en:Chapter 08

  545. 01:20:07.260 : en:Chapter 09

  546. 01:27:41.756 : en:Chapter 10

  547. 01:37:04.443 : en:Chapter 11

  548. 01:48:07.105 : en:Chapter 12

  549. 01:59:56.564 : en:Chapter 13

  550. 02:10:57.724 : en:Chapter 14

  551. 02:21:27.270 : en:Chapter 15

  552. 02:34:31.553 : en:Chapter 16

  553. 02:53:06.417 : en:Chapter 17

  554. 03:00:40.287 : en:Chapter 18

复制代码

绿里奇迹[中文字幕].The.Green.Mile.1999.1080p.BluRay.REMUX.AVC.DTS HD.MA.TrueHD.7.1.Atmos FGT 52.27GB  欧美电影  第2张 绿里奇迹[中文字幕].The.Green.Mile.1999.1080p.BluRay.REMUX.AVC.DTS HD.MA.TrueHD.7.1.Atmos FGT 52.27GB  欧美电影  第3张 绿里奇迹[中文字幕].The.Green.Mile.1999.1080p.BluRay.REMUX.AVC.DTS HD.MA.TrueHD.7.1.Atmos FGT 52.27GB  欧美电影  第4张



文件下载


除非特别注明,本文『绿里奇迹[中文字幕].The.Green.Mile.1999.1080p.BluRay.REMUX.AVC.DTS-HD.MA.TrueHD.7.1.Atmos-FGT 52.27GB』来源于互联网机器人自动抓取,非本站原创。 浮游电影网不对本文拥有版权,如有侵犯,请联系邮箱:fuyouu#yandex.com[#换成@]投诉。我们会在15个工作日内删除。 但烦请转载时请标明出处:“本文转载于『浮游电影网』,原文地址:https://www.fuyouu.com/21439.html

评论吧骚年!

发表你的见解   

昵称*

E-mail*(建议输入,以便收到博主回复的提示邮件)

验证码*

您可以使用eMule或eMule Mod(Windows)、aMule(Win、Linux、Mac)等软件下载eD2k链接。。
eMule收藏集(.emulecollection)文件是您选中的所有链接的列表文件。eMule可以直接下载它们。
按住SHIFT键选择可以选中多个选择框。
可用文件名和大小选择器来选择文件。
文件名选择器帮您根据文件名称或后缀来选择文件。不分大小写。
符号使用:
和:空格( )、+
不包含:-
或:|
转义:一对英文引号("");
匹配开头:^
匹配结尾:$
例如:
选中所有名称中包含有“eMule”或“0.49c”字眼,但不包含有“exe”字眼的:emule|0.49c -exe
选中所有名称的开头是“eMule”,结尾是“0.49c”的:^emule 0.49c$
选中所有名称中带有“eMule 0.49c”的(必须是“eMule 0.49c”,中间没有别的字符,不能是“eMule fake 0.49c”),需要转义:"emule 0.49c"
大小选择器帮您根据文件大小选择文件。