当前位置: 首页 >> 欧美电影 >> 新蝙蝠侠[杜比视界版本][中英字幕].The.Batman.2022.2160p.WEB-DL.DV.Atmos.DDP5.1.x265-OPT 18.93GB >> 正文

新蝙蝠侠[杜比视界版本][中英字幕].The.Batman.2022.2160p.WEB-DL.DV.Atmos.DDP5.1.x265-OPT 18.93GB

2022年04月18日 15:07:55     电影发布:来源于网络     电影分类:欧美电影     评论(2)    

新蝙蝠侠[杜比视界版本][中英字幕].The.Batman.2022.2160p.WEB DL.DV.Atmos.DDP5.1.x265 OPT 18.93GB  欧美电影  第1张

◎译 名 新蝙蝠侠 / 蝙蝠侠(港 / 台) / 重启版蝙蝠侠

◎片 名 The Batman

◎年 代 2022

◎产 地 美国

◎类 别 剧情 / 动作 / 悬疑 / 犯罪

◎语 言 英语

◎上映日期 2022-03-18(中国大陆) / 2022-03-01(韩国) / 2022-03-04(美国) / 2022-04-19(美国网络)

◎IMDb链接 https://www.imdb.com/title/tt1877830/

◎豆瓣评分 7.6/10 (151658人评价)

◎豆瓣链接 https://movie.douban.com/subject/6424756/

◎片 长 175分钟

◎导 演 马特·里夫斯 Matt Reeves (id:1045032)

◎编 剧 马特·里夫斯 Matt Reeves (id:1045032)

彼得·克莱格 Peter Craig (id:1041402)

比尔·芬格 Bill Finger (id:1006536)

鲍勃·凯恩 Bob Kane (id:1041392)

马特森·汤姆林 Mattson Tomlin (id:1261166)

◎演 员 罗伯特·帕丁森 Robert Pattinson (id:1035656)

佐伊·克罗维兹 Zo? Kravitz (id:1229502)

保罗·达诺 Paul Dano (id:1027774)

科林·法瑞尔 Colin Farrell (id:1084255)

杰弗里·怀特 Jeffrey Wright (id:1036484)

安迪·瑟金斯 Andy Serkis (id:1002708)

约翰·特托罗 John Turturro (id:1031851)

彼得·萨斯加德 Peter Sarsgaard (id:1031800)

巴里·基奥恩 Barry Keoghan (id:1360874)

杰米·劳森 Jayme Lawson (id:1426399)

吉尔·佩雷斯-亚伯拉罕 Gil Perez-Abraham (id:1417825)

彼得·麦克唐纳德 Peter McDonald (id:1005405)

康·奥尼尔 Con O'Neill (id:1320053)

亚历克斯·费恩斯 Alex Ferns (id:1028439)

鲁伯特·彭利-琼斯 Rupert Penry-Jones (id:1136688)

科莎·恩格勒 Kosha Engler (id:1189258)

杰宁·哈瑞妮 Janine Harouni (id:1392803)

卢克·罗伯茨 Luke Roberts (id:1347621)

斯特拉·斯托克尔 Stella Stocker (id:1347692)

桑德拉·迪金森 Sandra Dickinson (id:1090104)

杰克·班尼特 Jack Bennett (id:1018997)

约瑟夫·巴德拉玛 Joseph Balderrama (id:1400929)

詹姆斯·伊莱斯 James Eeles (id:1376659)

小利莫尔·马雷特 Leemore Marrett Jr. (id:1463867)

斯图尔特·亚历山大 Stewart Alexander (id:1458669)

马库斯·奥尼卢德 Marcus Onilude (id:1466041)

埃琳娜·沙雷 Elena Saurel (id:1414357)

托德·博伊斯 Todd Boyce (id:1350567)

道格拉斯·罗素 Douglas Russell (id:1354930)

查尔斯·卡维尔 Charles Carver (id:1315305)

马克斯·卡维尔 Max Carver (id:1271263)

马克·基林 Mark Killeen (id:1354933)

洛娜·布朗 Lorna Brown (id:1279442)

埃利奥特·沃伦 Elliot Warren (id:1433606)

小田部阿基 Akie Kotabe (id:1231929)

布隆森·韦伯 Bronson Webb (id:1032080)

阿瑟·李 Arthur Lee (id:1411947)

派瑞 格拉斯普 Parry Glasspool (id:1350561)

娜塔丽·阿明 Nathalie Armin (id:1397366)

何塞?帕尔马 Jose Palma (id:1418875)

玛吉·巴基尔 Maggie Bakir (id:1454332)

露丝·霍洛克斯 Ruth Horrocks (id:1397361)

贝恩·科拉科 Bern Colla?o (id:1394212)

丹尼尔·厄根 Daniel Eghan (id:1367202)

雷切尔·汉德肖 Rachel Handshaw (id:1433060)

爵克·哈迪 Juke Hardy (id:1381994)

吉米·斯达 Jimmy Star (id:1273873)

马特·里夫斯 Matt Reeves (id:1045032)

迪伦·克拉克 Dylan Clark (id:1419902)

马切尔·E·尤斯兰 Michael E. Uslan (id:1413601)

迈克·吉亚奇诺 Michael Giacchino (id:1027937)

格雷格·弗莱瑟 Greig Fraser (id:1028361)

泰勒·纳尔逊 Tyler Nelson (id:1431508)

辛迪·托兰 Cindy Tolan (id:1303459)

詹姆斯·钦伦德 James Chinlund (id:1418711)

大卫·克罗斯曼 David Crossman (id:1006793)

杰奎琳·杜兰 Jacqueline Durran (id:1282857)

格林·狄龙 Glyn Dillon (id:1424821)

丹·赖蒙 Dan Lemmon (id:1289780)

◎简 介

布鲁斯·韦恩(罗伯特·帕丁森 饰)化身蝙蝠侠于哥谭市行侠仗义两年后,罪犯皆闻风丧胆,他也因此深入接触到哥谭市的阴暗面。他潜行于哥谭市腐败的政要名流关系网中,身边仅有的几个值得信赖的盟友——管家阿尔弗雷德·潘尼沃斯(安迪·瑟金斯 饰)与詹姆斯·戈登警长(杰弗里·怀特 饰)。这位独行的“义警侠探”在哥谭市民心中已成为“复仇”二字最当仁不让的代名词。

  1. ##### MediaInfo ######

  2. General

  3. Unique ID : 316680805838906886376682694950136382231 (0xEE3E8132902D6BE1C28C82657B750317)

  4. Complete name : The.Batman.2022.2160p.WEB-DL.DV.Atmos.DDP5.1.x265-HDH.mkv

  5. Format : Matroska

  6. Format version : Version 4

  7. File size : 18.9 GiB

  8. Duration : 2 h 56 min

  9. Overall bit rate : 15.4 Mb/s

  10. Movie name : The Batman

  11. Encoded date : UTC 2022-04-18 00:33:48

  12. Writing application : mkvmerge v61.0.0 ('So') 64-bit

  13. Writing library : libebml v1.4.2 + libmatroska v1.6.4

  14. Cover : Yes

  15. Attachments : Cover.jpg

  16. Video

  17. ID : 1

  18. Format : HEVC

  19. Format/Info : High Efficiency Video Coding

  20. Format profile : Main [email protected]@High

  21. Codec ID : V_MPEGH/ISO/HEVC

  22. Duration : 2 h 56 min

  23. Bit rate : 14.6 Mb/s

  24. Width : 3 840 pixels

  25. Height : 1 606 pixels

  26. Display aspect ratio : 2.40:1

  27. Frame rate mode : Constant

  28. Frame rate : 23.976 (24000/1001/53354) FPS

  29. Color space : YUV

  30. Chroma subsampling : 4:2:0

  31. Bit depth : 10 bits

  32. Bits/(Pixel*Frame) : 0.099

  33. Stream size : 18.0 GiB (95%)

  34. Default : Yes

  35. Forced : No

  36. Audio

  37. ID : 2

  38. Format : E-AC-3 JOC

  39. Format/Info : Enhanced AC-3 with Joint Object Coding

  40. Commercial name : Dolby Digital Plus with Dolby Atmos

  41. Codec ID : A_EAC3

  42. Duration : 2 h 56 min

  43. Bit rate mode : Constant

  44. Bit rate : 768 kb/s

  45. Channel(s) : 6 channels

  46. Channel layout : L R C LFE Ls Rs

  47. Sampling rate : 48.0 kHz

  48. Frame rate : 31.250 FPS (1536 SPF)

  49. Compression mode : Lossy

  50. Stream size : 968 MiB (5%)

  51. Language : English

  52. Service kind : Complete Main

  53. Default : Yes

  54. Forced : No

  55. Complexity index : 16

  56. Number of dynamic objects : 15

  57. Bed channel count : 1 channel

  58. Bed channel configuration : LFE

  59. Text #1

  60. ID : 3

  61. Format : UTF-8

  62. Codec ID : S_TEXT/UTF8

  63. Codec ID/Info : UTF-8 Plain Text

  64. Duration : 2 h 43 min

  65. Bit rate : 48 b/s

  66. Count of elements : 1877

  67. Stream size : 58.0 KiB (0%)

  68. Language : English

  69. Default : Yes

  70. Forced : No

  71. Text #2

  72. ID : 4

  73. Format : UTF-8

  74. Codec ID : S_TEXT/UTF8

  75. Codec ID/Info : UTF-8 Plain Text

  76. Duration : 2 h 54 min

  77. Bit rate : 34 b/s

  78. Count of elements : 1812

  79. Stream size : 44.6 KiB (0%)

  80. Title : 简体中字

  81. Language : Chinese

  82. Default : Yes

  83. Forced : No

  84. Text #3

  85. ID : 5

  86. Format : UTF-8

  87. Codec ID : S_TEXT/UTF8

  88. Codec ID/Info : UTF-8 Plain Text

  89. Duration : 2 h 54 min

  90. Bit rate : 34 b/s

  91. Count of elements : 1812

  92. Stream size : 44.6 KiB (0%)

  93. Title : 繁体中字

  94. Language : Chinese

  95. Default : Yes

  96. Forced : No

  97. Text #4

  98. ID : 6

  99. Format : ASS

  100. Codec ID : S_TEXT/ASS

  101. Codec ID/Info : Advanced Sub Station Alpha

  102. Duration : 2 h 43 min

  103. Bit rate : 96 b/s

  104. Count of elements : 1877

  105. Compression mode : Lossless

  106. Stream size : 116 KiB (0%)

  107. Language : English

  108. Default : Yes

  109. Forced : No

  110. Text #5

  111. ID : 7

  112. Format : ASS

  113. Codec ID : S_TEXT/ASS

  114. Codec ID/Info : Advanced Sub Station Alpha

  115. Duration : 2 h 54 min

  116. Bit rate : 78 b/s

  117. Count of elements : 1812

  118. Compression mode : Lossless

  119. Stream size : 100 KiB (0%)

  120. Title : 简体中字

  121. Language : Chinese

  122. Default : Yes

  123. Forced : No

  124. Text #6

  125. ID : 8

  126. Format : ASS

  127. Codec ID : S_TEXT/ASS

  128. Codec ID/Info : Advanced Sub Station Alpha

  129. Duration : 2 h 54 min

  130. Bit rate : 78 b/s

  131. Count of elements : 1812

  132. Compression mode : Lossless

  133. Stream size : 100 KiB (0%)

  134. Title : 繁体中字

  135. Language : Chinese

  136. Default : Yes

  137. Forced : No



文件下载


除非特别注明,本文『新蝙蝠侠[杜比视界版本][中英字幕].The.Batman.2022.2160p.WEB-DL.DV.Atmos.DDP5.1.x265-OPT 18.93GB』来源于互联网机器人自动抓取,非本站原创。 浮游电影网不对本文拥有版权,如有侵犯,请联系邮箱:fuyouu#yandex.com[#换成@]投诉。我们会在15个工作日内删除。 但烦请转载时请标明出处:“本文转载于『浮游电影网』,原文地址:https://www.fuyouu.com/21435.html

评论吧骚年!

发表你的见解   

昵称*

E-mail*(建议输入,以便收到博主回复的提示邮件)

验证码*

您可以使用eMule或eMule Mod(Windows)、aMule(Win、Linux、Mac)等软件下载eD2k链接。。
eMule收藏集(.emulecollection)文件是您选中的所有链接的列表文件。eMule可以直接下载它们。
按住SHIFT键选择可以选中多个选择框。
可用文件名和大小选择器来选择文件。
文件名选择器帮您根据文件名称或后缀来选择文件。不分大小写。
符号使用:
和:空格( )、+
不包含:-
或:|
转义:一对英文引号("");
匹配开头:^
匹配结尾:$
例如:
选中所有名称中包含有“eMule”或“0.49c”字眼,但不包含有“exe”字眼的:emule|0.49c -exe
选中所有名称的开头是“eMule”,结尾是“0.49c”的:^emule 0.49c$
选中所有名称中带有“eMule 0.49c”的(必须是“eMule 0.49c”,中间没有别的字符,不能是“eMule fake 0.49c”),需要转义:"emule 0.49c"
大小选择器帮您根据文件大小选择文件。