当前位置: 首页 >> 动画电影 >> 喜羊羊与灰太狼之筐出未来[国语配音/中文字幕].Dunk.For.Future.2022.2160p.WEB-DL.H265.DDP5.1-HDBWEB 2.21GB >> 正文

喜羊羊与灰太狼之筐出未来[国语配音/中文字幕].Dunk.For.Future.2022.2160p.WEB-DL.H265.DDP5.1-HDBWEB 2.21GB

2022年04月18日 15:04:57     电影发布:来源于网络     电影分类:动画电影     评论(0)    

喜羊羊与灰太狼之筐出未来[国语配音/中文字幕].Dunk.For.Future.2022.2160p.WEB DL.H265.DDP5.1 HDBWEB 2.21GB  动画电影  第1张

◎译 名 喜羊羊与灰太狼之筐出未来 / 筐出未来 / 喜羊羊与灰太狼之运动英雄传2 / Dunk For Future / Pleasant Goat and Big Big Wolf: Dunk for Future

◎年 代 2022

◎产 地 中国大陆

◎类 别 喜剧 / 动画 / 运动

◎语 言 汉语普通话 / 粤语

◎上映日期 2022-02-01(中国大陆)

◎IMDb链接 https://www.imdb.com/title/tt17081130/

◎豆瓣评分 6.9/10 (23269人评价)

◎豆瓣链接 https://movie.douban.com/subject/35608160/

◎片 长 94分钟

◎导 演 黄伟明 Leo Huang (id:1322246)

◎编 剧 吴潮威 Chaowei Wu (id:1466771)

◎演 员 祖晴 Qing Zu (id:1316493)

张琳 Lin Zhang (id:1316497)

邓玉婷 Yuting Deng (id:1316494)

梁颖 Ying Liang (id:1316492)

刘红韵 Hongyun Liu (id:1316495)

高全胜 Quansheng Gao (id:1316496)

赵娜 Na Zhao (id:1316498)

蔡瑞琼 (id:1466769)

黄晓雪 (id:1466770)

黄俊铭 (id:1358629)

陈力进 (id:1466768)

◎简 介

喜羊羊、灰太狼与一众小羊组成的守护者队进入篮球顶级赛事决赛,但却意外地败北,团队分崩离析。

虽然各散东西,但对篮球的热爱和对冠军的渴望让大家再次组队,参加新一届大赛,然而这次的对手更强大,他们面临更大的挑战!

  1. ##### MediaInfo ######

  2. General

  3. Unique ID : 100360962914035083478904437966152364871 (0x4B80D180D9FB3BD4670DC0A95B7B7347)

  4. Complete name : 喜羊羊与灰太狼之筐出未来.Dunk.For.Future.2022.2160p.WEB-DL.H265.DDP5.1-OurTV.mkv

  5. Format : Matroska

  6. Format version : Version 4

  7. File size : 2.21 GiB

  8. Duration : 1 h 34 min

  9. Overall bit rate : 3 360 kb/s

  10. Encoded date : UTC 2022-04-17 03:20:11

  11. Writing application : mkvmerge v61.0.0 ('So') 64-bit

  12. Writing library : libebml v1.4.2 + libmatroska v1.6.4

  13. Video

  14. ID : 1

  15. Format : HEVC

  16. Format/Info : High Efficiency Video Coding

  17. Format profile : [email protected]@Main

  18. Codec ID : V_MPEGH/ISO/HEVC

  19. Duration : 1 h 34 min

  20. Bit rate : 2 912 kb/s

  21. Width : 3 840 pixels

  22. Height : 1 608 pixels

  23. Display aspect ratio : 2.40:1

  24. Frame rate mode : Constant

  25. Frame rate : 24.000 FPS

  26. Color space : YUV

  27. Chroma subsampling : 4:2:0

  28. Bit depth : 8 bits

  29. Bits/(Pixel*Frame) : 0.020

  30. Stream size : 1.92 GiB (87%)

  31. Default : Yes

  32. Forced : No

  33. Color range : Limited

  34. Color primaries : DCI P3

  35. Transfer characteristics : SMPTE 428M

  36. Matrix coefficients : BT.709

  37. Audio #1

  38. ID : 2

  39. Format : E-AC-3

  40. Format/Info : Enhanced AC-3

  41. Commercial name : Dolby Digital Plus

  42. Codec ID : A_EAC3

  43. Duration : 1 h 34 min

  44. Bit rate mode : Constant

  45. Bit rate : 256 kb/s

  46. Channel(s) : 6 channels

  47. Channel layout : L R C LFE Ls Rs

  48. Sampling rate : 48.0 kHz

  49. Frame rate : 31.250 FPS (1536 SPF)

  50. Compression mode : Lossy

  51. Stream size : 173 MiB (8%)

  52. Language : Chinese

  53. Service kind : Complete Main

  54. Default : Yes

  55. Forced : No

  56. Audio #2

  57. ID : 3

  58. Format : AAC LC

  59. Format/Info : Advanced Audio Codec Low Complexity

  60. Codec ID : A_AAC-2

  61. Duration : 1 h 34 min

  62. Bit rate : 192 kb/s

  63. Channel(s) : 2 channels

  64. Channel layout : L R

  65. Sampling rate : 44.1 kHz

  66. Frame rate : 43.066 FPS (1024 SPF)

  67. Compression mode : Lossy

  68. Stream size : 128 MiB (6%)

  69. Language : Chinese

  70. Default : Yes

  71. Forced : No


复制代码



文件下载


除非特别注明,本文『喜羊羊与灰太狼之筐出未来[国语配音/中文字幕].Dunk.For.Future.2022.2160p.WEB-DL.H265.DDP5.1-HDBWEB 2.21GB』来源于互联网机器人自动抓取,非本站原创。 浮游电影网不对本文拥有版权,如有侵犯,请联系邮箱:fuyouu#yandex.com[#换成@]投诉。我们会在15个工作日内删除。 但烦请转载时请标明出处:“本文转载于『浮游电影网』,原文地址:https://www.fuyouu.com/21432.html

评论吧骚年!

发表你的见解   

昵称*

E-mail*(建议输入,以便收到博主回复的提示邮件)

验证码*

您可以使用eMule或eMule Mod(Windows)、aMule(Win、Linux、Mac)等软件下载eD2k链接。。
eMule收藏集(.emulecollection)文件是您选中的所有链接的列表文件。eMule可以直接下载它们。
按住SHIFT键选择可以选中多个选择框。
可用文件名和大小选择器来选择文件。
文件名选择器帮您根据文件名称或后缀来选择文件。不分大小写。
符号使用:
和:空格( )、+
不包含:-
或:|
转义:一对英文引号("");
匹配开头:^
匹配结尾:$
例如:
选中所有名称中包含有“eMule”或“0.49c”字眼,但不包含有“exe”字眼的:emule|0.49c -exe
选中所有名称的开头是“eMule”,结尾是“0.49c”的:^emule 0.49c$
选中所有名称中带有“eMule 0.49c”的(必须是“eMule 0.49c”,中间没有别的字符,不能是“eMule fake 0.49c”),需要转义:"emule 0.49c"
大小选择器帮您根据文件大小选择文件。