当前位置: 首页 >> 国产电影 >> 画皮[共2部合集][国语音轨/简繁英字幕].Painted.Skin.2008-2012.BluRay.1080p.DTS-HD.MA.7.1.x265.10bit-ALT 23.84GB >> 正文

画皮[共2部合集][国语音轨/简繁英字幕].Painted.Skin.2008-2012.BluRay.1080p.DTS-HD.MA.7.1.x265.10bit-ALT 23.84GB

2022年04月18日 15:03:46     电影发布:来源于网络     电影分类:国产电影     评论(0)    

画皮[共2部合集][国语音轨/简繁英字幕].Painted.Skin.2008 2012.BluRay.1080p.DTS HD.MA.7.1.x265.10bit ALT 23.84GB  国产电影  第1张

◎译 名 画皮 / Painted Skin

◎片 名 畫皮

◎年 代 2008

◎产 地 中国大陆 / 中国香港 / 新加坡

◎类 别 剧情 / 爱情 / 惊悚 / 奇幻

◎语 言 汉语普通话

◎上映日期 2008-09-26(中国大陆) / 2008-09-25(中国香港)

◎IMDb链接 https://www.imdb.com/title/tt1055300/

◎豆瓣评分 6.8/10 (415656人评价)

◎豆瓣链接 https://movie.douban.com/subject/2135981/

◎片 长 103分钟(中国大陆)

◎导 演 陈嘉上 Gordon Chan (id:1274245)

钱永强 Andy Chin (id:1323176)

高林豹 Danny Ko (id:1323307)

◎编 剧 刘浩良 Ho Leung Lau (id:1317346)

邝文伟 Abe Kwong (id:1289168)

陈嘉上 Gordon Chan (id:1274245)

蒲松龄 Songling Pu (id:1275998)

◎演 员 周迅 Xun Zhou (id:1027798)

陈坤 Kun Chen (id:1053618)

甄子丹 Donnie Yen (id:1025194)

孙俪 Li Sun (id:1004856)

戚玉武 Yuwu Qi (id:1037547)

晋松 Song Jin (id:1315699)

梁家豪 David Leong (id:1370431)

柳岩 Yan Liu (id:1312846)

肖聪 Cong Xiao (id:1319169)

叶尔江·马合甫什 Erzhan Mahefushen (id:1370442)

谭安业 Michael Tan (id:1328184)

闻洋 Yang Wen (id:1370444)

赵长洲 Changzhou Zhao (id:1370445)

李奇龙 Qilong Li (id:1322644)

曲大雷 Dalei Qu (id:1370446)

向恬冉 Tianran Xiang (id:1336304)

韩振华 Zhenhua Han (id:1341864)

金粮 Liang Jin (id:1326066)

戴小轶 Xiaoyi Dai (id:1370447)

陈敏渝 Minyu Chen (id:1370448)

王巧玉 Qiaoyu Wang (id:1370449)

周恩恩 Pheobe Chow (id:1405656)

金雁 Yan Jin (id:1424165)

戚云鹏 Yunpeng Qi (id:1325527)

柳景溪 Jingxi Liu (id:1370455)

甄子丹 Donnie Yen (id:1025194)

陈嘉上 Gordon Chan (id:1274245)

钱永强 Andy Chin (id:1323176)

任仲伦 Zhonglun Ren (id:1333045)

邝文伟 Abe Kwong (id:1289168)

杨真鉴 Zhenjian Yang (id:1321054)

冯凯帅 Daniel (id:1315945)

杨洪涛 Hongtao Yang (id:1412635)

甄人 Ren Zhen (id:1350798)

云晖翔 Daniel Yun (id:1395832)

庞洪 Hong Pang (id:1321059)

肖凯 Xiao Kai (id:1421112)

魏健 Wei Jian (id:1422364)

张靓颖 Jane Zhang (id:1312922)

藤原育郎 Ikuro Fujiwara (id:1312594)

陈少琪 Cheuk-Kei Chan (id:1312425)

黄岳泰 Arthur Wong (id:1301185)

黄家辉 Ka Fai Wong (id:1403765)

陈祺合 Ki-hop Chan (id:1280429)

奚仲文 Chung-Man Hai (id:1275027)

雷楚雄 Bill Lui (id:1290436)

刘京平 Bill Liu (id:1311946)

吴宝玲 Po-ling Ng (id:1293135)

秦小珍 Janet Chun (id:1274236)

苗陈山 Chenshan Miao (id:1367330)

曾景祥 Kinson Tsang (id:1299575)

卢克 Ke Lu (id:1418952)

吴炫辉 Yuen Fai Ng (id:1275160)

马文现 Stephen Ma (id:1290573)

邹志盛 Chas Chi-Shing Chau (id:1325222)

董玮 Wai Tung (id:1299617)

◎简 介

根据中国古典名著《聊斋志异》改编。

秦汉年间,都尉王生(陈坤 饰)率王家军在西域苦战,并救回一女子小唯(周迅 饰)。王生并没有看到在他到来之前,小唯刚刚吞食完人心以保持人形。九霄美狐小唯对王生一见钟情,跟随他回家后以妹妹自居,眼看王生与佩容(赵薇 饰)夫妻情深,暗地里想取代佩容地位成为王生妻子。深爱着小唯且一直为她杀人取心的蜥蜴精小易几度向小唯表白,却被小唯怒吼而走。

城里越来越多的人死于心脏被挖,王生誓要查个水落石出,佩容已经觉得小唯异于常人且对丈夫有意。碍于王生对小唯的一片信任,她唯有去寻求当年负气出走的旧情人庞勇(甄子丹 饰)帮忙,而降魔者夏冰出于天命亦自告奋勇去除妖。

佩容所作一切但求王生安好,王生心痛佩容不相信自己,小唯委曲求全希冀得到爱情,庞勇和夏冰已蓄势待发。

◎获奖情况 (共25项)

第28届香港电影金像奖 (2009)

最佳电影(提名)

最佳编剧(提名)

最佳女主角(提名)

└──周迅 (id:1027798)

最佳女配角(提名)

└──孙俪 (id:1004856)

最佳摄影

└──黄岳泰 (id:1301185)

最佳美术指导(提名)

最佳服装造型设计(提名)

└──吴宝玲 (id:1293135)

最佳动作设计(提名)

└──董玮 (id:1299617)

最佳原创电影音乐(提名)

└──藤原育郎 (id:1312594)

最佳原创电影歌曲

最佳音响效果(提名)

最佳视觉效果(提名)

第27届中国电影金鸡奖 (2009)

最佳导演(提名)

└──陈嘉上 (id:1274245)

最佳女主角(提名)

最佳女配角(提名)

└──孙俪 (id:1004856)

最佳摄影(提名)

└──黄岳泰 (id:1301185)

最佳美术(提名)

第30届大众电影百花奖 (2010)

最佳男主角

└──陈坤 (id:1053618)

最佳女主角(提名)

└──周迅 (id:1027798)

最佳女配角(提名)

└──孙俪 (id:1004856)

第13届中国电影华表奖 (2009)

优秀合拍片奖

第3届亚洲电影大奖 (2009)

最佳女主角(提名)

最佳美术指导(提名)

└──雷楚雄 (id:1290436)

第10届中国长春电影节 (2010)

金鹿奖 最佳音乐

└──藤原育郎 (id:1312594)

第16届北京大学生电影节 (2009)

最佳观赏效果奖

  1. 合集文件列表:

  2. 1.Painted.Skin.2008.BluRay.1080p.DTS-HD.MA.7.1.x265.10bit-ALT.mkv 10.93GB

  3. 2.Painted.Skin.The.Resurrection.2012.BluRay.1080p.TrueHD.5.1.x265.10bit-ALT.mkv 12.92GB


复制代码

  1. ##### MediaInfo ######

  2. General

  3. Unique ID : 239546749584946467940536629139985565939 (0xB437069B867ABF4E0568EBAB440688F3)

  4. Complete name : Painted.Skin.2008.BluRay.1080p.DTS-HD.MA.7.1.x265.10bit-BeiTai.mkv

  5. Format : Matroska

  6. Format version : Version 4

  7. File size : 10.9 GiB

  8. Duration : 1 h 58 min

  9. Overall bit rate mode : Variable

  10. Overall bit rate : 13.2 Mb/s

  11. Encoded date : UTC 2020-12-22 12:44:16

  12. Writing application : mkvmerge v49.0.0 ('Sick Of Losing Soulmates') 64-bit

  13. Writing library : libebml v1.4.0 + libmatroska v1.6.1

  14. Video

  15. ID : 1

  16. Format : HEVC

  17. Format/Info : High Efficiency Video Coding

  18. Format profile : Main [email protected]@High

  19. Codec ID : V_MPEGH/ISO/HEVC

  20. Duration : 1 h 58 min

  21. Bit rate : 10.7 Mb/s

  22. Width : 1 920 pixels

  23. Height : 818 pixels

  24. Display aspect ratio : 2.35:1

  25. Frame rate mode : Constant

  26. Frame rate : 24.000 FPS

  27. Color space : YUV

  28. Chroma subsampling : 4:2:0

  29. Bit depth : 10 bits

  30. Bits/(Pixel*Frame) : 0.285

  31. Stream size : 8.87 GiB (81%)

  32. Title : HEVC, [email protected]@High, 24 fps @ 10747 kbps

  33. Writing library : x265 3.4+14-gd419c7152:[Windows][GCC 10.2.0][64 bit] 10bit

  34. Encoding settings : cpuid=533541111039 / frame-threads=5 / numa-pools=44,44 / wpp / pmode / pme / no-psnr / no-ssim / log-level=2 / input-csp=1 / input-res=1920x818 / interlace=0 / total-frames=170112 / level-idc=51 / high-tier=1 / uhd-bd=0 / ref=5 / no-allow-non-conformance / no-repeat-headers / annexb / no-aud / no-hrd / info / hash=0 / no-temporal-layers / open-gop / min-keyint=24 / keyint=240 / gop-lookahead=0 / bframes=6 / b-adapt=2 / b-pyramid / bframe-bias=0 / rc-lookahead=40 / lookahead-slices=0 / NTMzNTQ=uuDQuD2mJt9fsCf / scenecut=40 / hist-scenecut=0 / radl=0 / no-splice / no-intra-refresh / ctu=32 / min-cu-size=8 / no-rect / no-amp / max-tu-size=32 / tu-inter-depth=3 / tu-intra-depth=3 / limit-tu=4 / rdoq-level=2 / dynamic-rd=0.00 / no-ssim-rd / signhide / no-tskip / nr-intra=0 / nr-inter=0 / no-constrained-intra / no-strong-intra-smoothing / max-merge=4 / limit-refs=1 / limit-modes / me=3 / subme=4 / merange=25 / temporal-mvp / no-frame-dup / no-hme / weightp / weightb / no-analyze-src-pics / deblock=-3:-3 / no-sao / no-sao-non-deblock / rd=6 / selective-sao=0 / no-early-skip / rskip / no-fast-intra / no-tskip-fast / no-cu-lossless / b-intra / no-splitrd-skip / rdpenalty=0 / psy-rd=2.00 / psy-rdoq=1.00 / no-rd-refine / no-lossless / cbqpoffs=0 / crqpoffs=0 / rc=crf / crf=17.0 / qcomp=0.65 / qpstep=4 / stats-write=0 / stats-read=0 / vbv-maxrate=80000 / vbv-bufsize=80000 / vbv-init=0.9 / crf-max=0.0 / crf-min=0.0 / ipratio=1.40 / pbratio=1.30 / aq-mode=2 / aq-strength=0.85 / cutree / zone-count=0 / no-strict-cbr / qg-size=32 / no-rc-grain / qpmax=69 / qpmin=0 / no-const-vbv / sar=1 / overscan=0 / videoformat=5 / range=0 / colorprim=1 / transfer=1 / colormatrix=1 / chromaloc=0 / display-window=0 / cll=0,0 / min-luma=0 / max-luma=1023 / log2-max-poc-lsb=8 / vui-timing-info / vui-hrd-info / slices=1 / no-opt-qp-pps / no-opt-ref-list-length-pps / no-multi-pass-opt-rps / scenecut-bias=0.05 / hist-threshold=0.03 / no-opt-cu-delta-qp / no-aq-motion / no-hdr10 / no-hdr10-opt / no-dhdr10-opt / no-idr-recovery-sei / analysis-reuse-level=0 / analysis-save-reuse-level=0 / analysis-load-reuse-level=0 / scale-factor=0 / refine-intra=0 / refine-inter=0 / refine-mv=1 / refine-ctu-distortion=0 / no-limit-sao / ctu-info=0 / no-lowpass-dct / refine-analysis-type=0 / copy-pic=1 / max-ausize-factor=1.0 / no-dynamic-refine / no-single-sei / no-hevc-aq / no-svt / no-field / qp-adaptation-range=1.00 / no-scenecut-aware-qpconformance-window-offsets / right=0 / bottom=0 / NTMzNTQ= / decoder-max-rate=0

  35. Language : English

  36. Default : Yes

  37. Forced : No

  38. Color range : Limited

  39. Color primaries : BT.709

  40. Transfer characteristics : BT.709

  41. Matrix coefficients : BT.709

  42. Audio

  43. ID : 2

  44. Format : DTS XLL

  45. Format/Info : Digital Theater Systems

  46. Commercial name : DTS-HD Master Audio

  47. Codec ID : A_DTS

  48. Duration : 1 h 58 min

  49. Bit rate mode : Variable

  50. Bit rate : 2 423 kb/s

  51. Channel(s) : 8 channels

  52. Channel layout : C L R LFE Lb Rb Lss Rss

  53. Sampling rate : 48.0 kHz

  54. Frame rate : 93.750 FPS (512 SPF)

  55. Bit depth : 16 bits

  56. Compression mode : Lossless

  57. Stream size : 2.00 GiB (18%)

  58. Title : Mandarin DTS-HD Master Audio 7.1 @ 2423 kbps

  59. Language : Chinese

  60. Default : Yes

  61. Forced : No

  62. Text #1

  63. ID : 3

  64. Format : PGS

  65. Codec ID : S_HDMV/PGS

  66. Codec ID/Info : Picture based subtitle format used on BDs/HD-DVDs

  67. Duration : 1 h 52 min

  68. Bit rate : 25.5 kb/s

  69. Count of elements : 2060

  70. Stream size : 20.5 MiB (0%)

  71. Title : Cht/SUP 原盘繁体

  72. Language : Chinese

  73. Default : No

  74. Forced : No

  75. Text #2

  76. ID : 4

  77. Format : PGS

  78. Codec ID : S_HDMV/PGS

  79. Codec ID/Info : Picture based subtitle format used on BDs/HD-DVDs

  80. Duration : 1 h 52 min

  81. Bit rate : 23.0 kb/s

  82. Count of elements : 2060

  83. Stream size : 18.5 MiB (0%)

  84. Title : Chs/SUP 原盘简体

  85. Language : Chinese

  86. Default : Yes

  87. Forced : No

  88. Text #3

  89. ID : 5

  90. Format : PGS

  91. Codec ID : S_HDMV/PGS

  92. Codec ID/Info : Picture based subtitle format used on BDs/HD-DVDs

  93. Duration : 1 h 52 min

  94. Bit rate : 24.1 kb/s

  95. Count of elements : 2060

  96. Stream size : 19.4 MiB (0%)

  97. Title : Eng/SUP

  98. Language : English

  99. Default : No

  100. Forced : No

  101. Menu

  102. 00:00:00.000 : :第 01 章

  103. 00:10:27.792 : :第 02 章

  104. 00:15:18.458 : :第 03 章

  105. 00:24:18.792 : :第 04 章

  106. 00:34:59.417 : :第 05 章

  107. 00:43:07.542 : :第 06 章

  108. 00:49:12.958 : :第 07 章

  109. 00:56:13.625 : :第 08 章

  110. 01:05:17.000 : :第 09 章

  111. 01:13:42.792 : :第 10 章

  112. 01:23:53.000 : :第 11 章

  113. 01:30:48.792 : :第 12 章

  114. 01:34:15.500 : :第 13 章

  115. 01:41:38.083 : :第 14 章

  116. 01:47:23.250 : :第 15 章

  117. 01:52:28.000 : :第 16 章


复制代码



文件下载


除非特别注明,本文『画皮[共2部合集][国语音轨/简繁英字幕].Painted.Skin.2008-2012.BluRay.1080p.DTS-HD.MA.7.1.x265.10bit-ALT 23.84GB』来源于互联网机器人自动抓取,非本站原创。 浮游电影网不对本文拥有版权,如有侵犯,请联系邮箱:fuyouu#yandex.com[#换成@]投诉。我们会在15个工作日内删除。 但烦请转载时请标明出处:“本文转载于『浮游电影网』,原文地址:https://www.fuyouu.com/21431.html

评论吧骚年!

发表你的见解   

昵称*

E-mail*(建议输入,以便收到博主回复的提示邮件)

验证码*

您可以使用eMule或eMule Mod(Windows)、aMule(Win、Linux、Mac)等软件下载eD2k链接。。
eMule收藏集(.emulecollection)文件是您选中的所有链接的列表文件。eMule可以直接下载它们。
按住SHIFT键选择可以选中多个选择框。
可用文件名和大小选择器来选择文件。
文件名选择器帮您根据文件名称或后缀来选择文件。不分大小写。
符号使用:
和:空格( )、+
不包含:-
或:|
转义:一对英文引号("");
匹配开头:^
匹配结尾:$
例如:
选中所有名称中包含有“eMule”或“0.49c”字眼,但不包含有“exe”字眼的:emule|0.49c -exe
选中所有名称的开头是“eMule”,结尾是“0.49c”的:^emule 0.49c$
选中所有名称中带有“eMule 0.49c”的(必须是“eMule 0.49c”,中间没有别的字符,不能是“eMule fake 0.49c”),需要转义:"emule 0.49c"
大小选择器帮您根据文件大小选择文件。